(Traditional Electronic, Experimental Electronic) Isao Tomita & The Plasma Symphony Orchestra - Grand Canyon Suite - 1982, FLAC (image+.cue), lossless

Ответить на тему
Статистика раздачи
Размер:  150 MB   |    Зарегистрирован:  13 дней   |    Скачан:  0 раз

Полного источника не было: Никогда

 
   
 
 
Автор Сообщение

star21 ®

Пол: Не указан

Стаж: 2 года

Сообщений: 355767

Создавать темы 07-Ноя-2017 07:35

[Цитировать]

Isao Tomita & The Plasma Symphony Orchestra - Grand Canyon Suite Жанр: Traditional Electronic, Experimental Electronic
Год выпуска диска: 1982
Производитель диска: Россия
Аудио кодек: FLAC
Тип рипа: image+.cue
Битрейт аудио: lossless
Продолжительность: 32:55
Происxождение рипа: Собственный рип из личной коллекцииТрэклист:
1. Sunrise 5:16
2. Painted Desert 6:57
3. On The Trail 7:08
4. Sunset 4:41
5. Cloudburst 8:44Доп. информация:
Electronic interpretation of the classical work by Ferde Grofé.
The instruments used are named The Plasma Symphony Orchestra.

EAC Report

Exact Audio Copy V0.99 prebeta 4 from 23. January 2008Отчёт EAC об извлечении, выполненном 29. июня 2010, 20:50Isao Tomita / Gran Canyon SuiteДисковод: ASUS DRW-20B1LT Adapter: 4 ID: 0Режим чтения : Достоверность
Использование точного потока : Да
Отключение кэша аудио : Да
Использование указателей C2 : НетКоррекция смещения при чтении : 6
Способность читать области Lead-in и Lead-out : Нет
Заполнение пропущенных сэмплов тишиной : Да
Удаление блоков с тишиной в начале и конце : Нет
При вычислениях CRC использовались нулевые сэмплы : Да
Интерфейс : Встроенный Win32-интерфейс для Win NT/2000Выходной формат : Пользовательский кодировщик
Выбранный битрейт : 768 kBit/s
Качество : Высокий
Добавление ID3-тэга : Нет
Утилита сжатия : D:\Program Files\Exact Audio Copy\Flac\Flac.exe
Дополнительные параметры : -8 --delete-input-file -o "D:\CDImage.flac" -V %sTOC извлечённого CD Трек | Старт | Длительность | Начальный сектор | Конечный сектор
---------------------------------------------------------------------
1 | 0:00.00 | 5:18.47 | 0 | 23896
2 | 5:18.47 | 6:58.13 | 23897 | 55259
3 | 12:16.60 | 7:10.02 | 55260 | 87511
4 | 19:26.62 | 4:42.38 | 87512 | 108699
5 | 24:09.25 | 8:43.55 | 108700 | 147979Характеристики диапазона извлечения и сообщения об ошибкахВыбранный диапазон Имя файла D:\Isao Tomita - Gran Canyon Suite.wav Пиковый уровень 96.0 %
Качество диапазона 100.0 %
CRC теста D45AD6AF
CRC копии D45AD6AF
Копирование... OKОшибок не произошлоAccurateRip: сводкаТрек 1 нет в базе данных
Трек 2 нет в базе данных
Трек 3 нет в базе данных
Трек 4 нет в базе данных
Трек 5 нет в базе данныхНи одного трека нет в базе AccurateRipКонец отчёта

Для скачки контента: [Установить программу-клиент] и кликнуть по - Скачать

[asmlocator.ru].t430771.torrent 
Торрент: Зарегистрирован [ 2017-11-07 07:35 ] · 098E6A4DE3C34CFC112CBEC2759FBF7B82C3567E

Скачать .torrent

Скачать

25 KB

Статус: проверено
Скачан: 0 раз
Размер: 150 MB
terms.php
[Профиль] [ЛС]
Показать сообщения:    
Ответить на тему

Текущее время: 20-Ноя 15:31

Часовой пояс: UTC ± 0



Вы не можете начинать темы
Вы не можете отвечать на сообщения
Вы не можете редактировать свои сообщения
Вы не можете удалять свои сообщения
Вы не можете голосовать в опросах
Вы не можете прикреплять файлы к сообщениям
Вы можете скачивать файлы