Алуника Добровольская - Как получать от мужчины больше! New design [2015, отношения, любовь, CAMRip, RUS] (Видеоурок)

Ответить на тему
Статистика раздачи
Размер:  1.03 GB   |    Зарегистрирован:  2 года 6 месяцев   |    Скачан:  3 раза

Полного источника не было: 15 минут

 
   
 
 
Автор Сообщение

star21 ®

Пол: Женский

Стаж: 4 года 6 месяцев

Сообщений: 551945

Откуда: Екатеринбург

Создавать темы 05-Ноя-2017 07:50

[Цитировать]

Алуника Добровольская - Как получать от мужчины больше! Страна: Россия
Тематика: отношения, любовь
Тип раздаваемого материала: Видеоурок
Год выпуска: 2015Язык: Русский
Перевод: Не требуетсяОписание: Алуника Добровольская — трансформационный коуч — называет себя консультантом умных и красивых женщин. Алуника разработала собственную систему психологической помощи людям и в течение многих лет приезжает с тренингами в разные страны. Среди тем, которые мастерски поднимает Алуника, — личные отношения, целеполагание, успешное развитие бизнеса, архетипное восприятие действительности, защита от «токсичных» взаимоотношений.Огромное количество женщин живут, НЕДОПОЛУЧАЯ… Живут в ощущении, что им не хватает в жизни ВАЖНЫХ ресурсов. Каждый день многие из нас ловят себя на мысли: «Я хочу от моего мужчины БОЛЬШЕ!! Больше Внимания, Больше заботы, Больше подарков и тд и тп»..КАК и ЗАЧЕМ брать у мужчины необходимые тебе ресурсы? (особенно, если он не особенно торопится с тобой ими делиться)Девиз программы: Получите доступ к секретным женским практикам и получайте больше от своих мужчинЦель программы: Навсегда избавить вас от вредных блоков в сознании, которые мешают вам получать удовольствие от мужской заботы.Пройдя программу, вы сможете:
  • Грандиозно поменять свое поведение
    • Получать нужные вам ресурсы (Внимание, деньги, заботу)
    • Наслаждаться результатами.
      Универсальные Приемы прекрасно работают со всеми мужчинами из вашего поля: Любимый или начальник, друг или просто коллега – каждый из них МУЖЧИНА в вашей жизни.К сожалению, качеством нас не балуют, курс предоставлен именно так, как куплен у автора.Продолжительность: 04:06:36
      Качество: CAMRip
      Формат: MP4
      Видео кодек: H.264
      Аудио кодек: AAC
      Видео: MPEG4 Video (H264) 640x480 25fps 466kbps
      Аудио: AAC 44100Hz stereo 125kbps

      MediaInfo

      General
      Complete name : D:\rd\Алуника Добровольская - Как получать от мужчины больше. NEW DESIGN.mp4
      Format : MPEG-4
      Format profile : Base Media
      Codec ID : isom
      File size : 1.03 GiB
      Duration : 4h 6mn
      Overall bit rate : 598 Kbps
      Writing application : Lavf57.2.100Video
      ID : 1
      Format : AVC
      Format/Info : Advanced Video Codec
      Format profile : Main@L3.0
      Format settings, CABAC : Yes
      Format settings, ReFrames : 3 frames
      Codec ID : avc1
      Codec ID/Info : Advanced Video Coding
      Duration : 4h 6mn
      Bit rate : 466 Kbps
      Width : 640 pixels
      Height : 480 pixels
      Display aspect ratio : 4:3
      Frame rate mode : Constant
      Frame rate : 25.000 fps
      Color space : YUV
      Chroma subsampling : 4:2:0
      Bit depth : 8 bits
      Scan type : Progressive
      Bits/(Pixel*Frame) : 0.061
      Stream size : 822 MiB (78%)Audio
      ID : 2
      Format : AAC
      Format/Info : Advanced Audio Codec
      Format profile : LC
      Codec ID : 40
      Duration : 4h 6mn
      Bit rate mode : Constant
      Bit rate : 126 Kbps
      Channel(s) : 2 channels
      Channel positions : Front: L R
      Sampling rate : 44.1 KHz
      Compression mode : Lossy
      Stream size : 222 MiB (21%)

      Скриншоты

      Оставайтесь, пожалуйста, на раздаче после скачивания. Материала у меня много (Алуника есть почти вся), а канал не очень
  • Чтобы скачать этот контент, Вам необходимо:
    1. Скачать и установить торрент-клиент [клик для Windows], (для мобильного найдите на Play Маркет).
    2. Кликнуть по [Скачать]


    Внимание.
    Если проверка ВЫ НЕ РОБОТ - не работает, значит Вы используете устаревший браузер.
    Установите актуальный браузер и повторно кликните по [Скачать]

    Запрещён Яндекс браузер. Загрузка файлов им является ошибочной.
    Безопасность: торрент-клиент разрешён АВ Касперского.

    [asmlocator.ru].t428592.torrent 
    Торрент: Зарегистрирован [ 2017-11-05 07:50 ] · 99C78A434CD3C79AB4FFDD1A52C501314EAFB768

    Скачать .torrent

    Скачать

    11 KB

    Статус: проверено
    Скачан: 3 раз
    Размер: 1.03 GB
    terms.php
    [Профиль] [ЛС]
    Показать сообщения:    
    Ответить на тему

    Текущее время: 25-Май 02:25

    Часовой пояс: UTC ± 0



    Вы не можете начинать темы
    Вы не можете отвечать на сообщения
    Вы не можете редактировать свои сообщения
    Вы не можете удалять свои сообщения
    Вы не можете голосовать в опросах
    Вы не можете прикреплять файлы к сообщениям
    Вы можете скачивать файлы
    Верим фактам, а не вранью Путина! Факт, что Правительство ведёт Россию к истреблению.
    Так как численность населения падает, даже не смотря на приток эмигрантов!
    Русская нация вымирает и вырождается, смешиваясь с эмигрантами!
    Факт, что военных и граждан предприятий заставляют голосовать за партию Единая Россия и Путина
    ПОД СТРАХОМ УВОЛЬНЕНИЯ!
    Нам не нужно Правительство, блокирующее личную жизнь, интернет, нарушающее сохранность данных.
    Все эти действия финансируются за счёт народа!