Алуника Добровольская - Внутренний дизайн себя. 7 шагов к супер Я [2016, психология, женщины, CAMRip, RUS] (Видеоурок)

Ответить на тему
Статистика раздачи
Размер:  629 MB   |    Зарегистрирован:  2 года 6 месяцев   |    Скачан:  4 раза

Полного источника не было: 43 минуты

 
   
 
 
Автор Сообщение

star21 ®

Пол: Женский

Стаж: 4 года 6 месяцев

Сообщений: 551945

Откуда: Екатеринбург

Создавать темы 05-Ноя-2017 07:50

[Цитировать]

Алуника Добровольская - Внутренний дизайн себя.
7 шагов к супер Я
Страна: Россия
Тематика: психология, женщины
Тип раздаваемого материала: Видеоурок
Год выпуска: 2016Язык: Русский
Перевод: Не требуетсяОб авторе: Алуника Добровольская — трансформационный коуч — называет себя консультантом умных и красивых женщин. Алуника разработала собственную систему психологической помощи людям и в течение многих лет приезжает с тренингами в разные страны. Среди тем, которые мастерски поднимает Алуника, — личные отношения, целеполагание, успешное развитие бизнеса, архетипное восприятие действительности, защита от «токсичных» взаимоотношений.Девиз программы: Узнай то, что позволит тебе реализовываться но-новому.Цель программы: Открыть вам глаза на ваши скрытые возможности.В каждой из нас гораздо больше способностей, чем нам кажется. Эти способности и суперсилы дремлют в нас, ожидая своего часа, но для многих он так никогда и не наступает.Когда вы пройдете программу “Внутренний дизайн себя. 7 шагов к супер Я”, вы сделаете семь шагов навстречу Супер Я и удивитесь скрытым в вас возможностямВ программе:
  • Работа со своими ролевыми программами умения создавать НОВУЮ себя.
  • Раскрытие своих способностей и пошаговый план дизайна себя
  • Твой отряд внутреннего Я: узнай своих скрытых помощников
  • Мощные глубинные техники изменений + Целительный ГипноТранс “Супер Я
    К сожалению, качеством нас не балуют, курс предоставлен именно так, как куплен у автора.Продолжительность: 03:47:41
    Качество: CAMRip
    Формат: MP4
    Видео кодек: H.264
    Аудио кодек: AAC
    Видео: MPEG4 Video (H264) 640x356 25fps 288kbps
    Аудио: AAC 44100Hz stereo 96kbps

    MediaInfo

    General
    Complete name : D:\rd\Алуника Добровольская - Внутренний дизайн себя. 7 шагов к супер Я.mp4
    Format : MPEG-4
    Format profile : Base Media / Version 2
    Codec ID : mp42
    File size : 629 MiB
    Duration : 3h 47mn
    Overall bit rate mode : Variable
    Overall bit rate : 387 Kbps
    Encoded date : UTC 2015-03-19 18:19:58
    Tagged date : UTC 2015-03-19 18:19:58
    gsst : 0
    gstd : 13652543Video
    ID : 1
    Format : AVC
    Format/Info : Advanced Video Codec
    Format profile : Baseline@L3.0
    Format settings, CABAC : No
    Format settings, ReFrames : 1 frame
    Codec ID : avc1
    Codec ID/Info : Advanced Video Coding
    Duration : 3h 47mn
    Bit rate : 288 Kbps
    Maximum bit rate : 1 277 Kbps
    Width : 640 pixels
    Height : 356 pixels
    Display aspect ratio : 16:9
    Frame rate mode : Constant
    Frame rate : 25.000 fps
    Color space : YUV
    Chroma subsampling : 4:2:0
    Bit depth : 8 bits
    Scan type : Progressive
    Bits/(Pixel*Frame) : 0.051
    Stream size : 469 MiB (75%)
    Tagged date : UTC 2015-03-19 18:21:53Audio
    ID : 2
    Format : AAC
    Format/Info : Advanced Audio Codec
    Format profile : LC
    Codec ID : 40
    Duration : 3h 47mn
    Bit rate mode : Variable
    Bit rate : 96.0 Kbps
    Maximum bit rate : 101 Kbps
    Channel(s) : 2 channels
    Channel positions : Front: L R
    Sampling rate : 44.1 KHz
    Compression mode : Lossy
    Stream size : 156 MiB (25%)
    Title : IsoMedia File Produced by Google, 5-11-2011
    Encoded date : UTC 2015-03-19 18:20:51
    Tagged date : UTC 2015-03-19 18:21:53

    Скриншоты

    Чтобы скачать этот контент, Вам необходимо:
    1. Скачать и установить торрент-клиент [клик для Windows], (для мобильного найдите на Play Маркет).
    2. Кликнуть по [Скачать]


    Внимание.
    Если проверка ВЫ НЕ РОБОТ - не работает, значит Вы используете устаревший браузер.
    Установите актуальный браузер и повторно кликните по [Скачать]

    Запрещён Яндекс браузер. Загрузка файлов им является ошибочной.
    Безопасность: торрент-клиент разрешён АВ Касперского.

    [asmlocator.ru].t428587.torrent 
    Торрент: Зарегистрирован [ 2017-11-05 07:50 ] · 4FACC7BDE138B6ACE0B18011075617189C9380C0

    Скачать .torrent

    Скачать

    13 KB

    Статус: проверено
    Скачан: 4 раз
    Размер: 629 MB
    terms.php
  • [Профиль] [ЛС]
    Показать сообщения:    
    Ответить на тему

    Текущее время: 02-Июн 23:23

    Часовой пояс: UTC ± 0



    Вы не можете начинать темы
    Вы не можете отвечать на сообщения
    Вы не можете редактировать свои сообщения
    Вы не можете удалять свои сообщения
    Вы не можете голосовать в опросах
    Вы не можете прикреплять файлы к сообщениям
    Вы можете скачивать файлы
    Верим фактам, а не вранью Путина! Факт, что Правительство ведёт Россию к истреблению.
    Так как численность населения падает, даже не смотря на приток эмигрантов!
    Русская нация вымирает и вырождается, смешиваясь с эмигрантами!
    Факт, что военных и граждан предприятий заставляют голосовать за партию Единая Россия и Путина
    ПОД СТРАХОМ УВОЛЬНЕНИЯ!
    Нам не нужно Правительство, блокирующее личную жизнь, интернет, нарушающее сохранность данных.
    Все эти действия финансируются за счёт народа!