Пойманный / Trapped (Дэйв Флейшер / Dave Fleischer) [1923, США, мультфильм, комедия, DVDRip] original + rus sub

Ответить на тему
Статистика раздачи
Размер:  122 MB   |    Зарегистрирован:  22 дня   |    Скачан:  0 раз

Полного источника не было: Никогда

 
   
 
 
Автор Сообщение

star21 ®

Пол: Не указан

Стаж: 2 года

Сообщений: 355767

Создавать темы 29-Окт-2017 08:31

[Цитировать]

Пойманный / TrappedСтрана: США
Жанр: мультфильм, комедия
Продолжительность: 00:13:07
Год выпуска: 1923
Перевод: субтитры (alex.n42)
Русские субтитры: естьРежиссёр: Дэйв Флейшер / Dave FleischerОписание: Один из фильмов серии "Out of the inkwell" / "Из чернильницы".
Макс Флейшер рисует клоуна Коко, и тут по полу начинает бегать мышка. Коко желает поймать её, но Макс хочет заняться этим сам. Чтобы чем-то занять Коко, он рисует рядом с ним большого паука, и в результате бедному клоуну приходится спасаться от этого восьминогого...Качество: DVDRip
Формат: AVI
Видео: 1198 kbps, 624х448 (1.393), 25.000 fps, MPEG-4 Visual (XviD)
Аудио: 96 kbps, 44.1 kHz, 1 channel, MPEG Audio (MP3)
Субтитры: softsub (SRT)

Подробные технические данные

GeneralComplete name                            : Trapped (1923).aviFormat                                   : AVIFormat/Info                              : Audio Video InterleaveFile size                                : 122 MiBDuration                                 : 13mn 7sOverall bit rate                         : 1 304 KbpsWriting application                      : VirtualDubMod 1.5.10.2 (build 2540/release)Writing library                          : VirtualDub build 35491/releaseVideoID                                       : 0Format                                   : MPEG-4 VisualFormat profile                           : Advanced Simple@L4Format settings, BVOP                    : 2Format settings, QPel                    : NoFormat settings, GMC                     : No warppointsFormat settings, Matrix                  : Default (H.263)Codec ID                                 : XVIDCodec ID/Hint                            : XviDDuration                                 : 13mn 7sBit rate                                 : 1 198 KbpsWidth                                    : 624 pixelsHeight                                   : 448 pixelsDisplay aspect ratio                     : 1.393Frame rate                               : 25.000 fpsColor space                              : YUVChroma subsampling                       : 4:2:0Bit depth                                : 8 bitsScan type                                : ProgressiveCompression mode                         : LossyBits/(Pixel*Frame)                       : 0.171Stream size                              : 112 MiB (92%)Writing library                          : XviD 64AudioID                                       : 1Format                                   : MPEG AudioFormat version                           : Version 1Format profile                           : Layer 3Codec ID                                 : 55Codec ID/Hint                            : MP3Duration                                 : 13mn 7sBit rate mode                            : ConstantBit rate                                 : 96.0 KbpsChannel(s)                               : 1 channelSampling rate                            : 44.1 KHzCompression mode                         : LossyStream size                              : 9.00 MiB (7%)Alignment                                : Split accross interleavesInterleave, duration                     : 40 ms (1.00 video frame)Interleave, preload duration             : 500 ms

Скриншоты

Для скачки контента: [Установить программу-клиент] и кликнуть по - Скачать

[asmlocator.ru].t421678.torrent 
Торрент: Зарегистрирован [ 2017-10-29 08:30 ] · 0EDC56C97ADC439869874BFBA9A1FC8AC6AC5BF3

Скачать .torrent

Скачать

20 KB

Статус: проверено
Скачан: 0 раз
Размер: 122 MB
terms.php
[Профиль] [ЛС]
Показать сообщения:    
Ответить на тему

Текущее время: 20-Ноя 15:27

Часовой пояс: UTC ± 0



Вы не можете начинать темы
Вы не можете отвечать на сообщения
Вы не можете редактировать свои сообщения
Вы не можете удалять свои сообщения
Вы не можете голосовать в опросах
Вы не можете прикреплять файлы к сообщениям
Вы можете скачивать файлы