Из племени гончих псов (Евгения Лавренова) [2017, Россия, Документальный, HDTVRip]

Ответить на тему
Статистика раздачи
Размер:  742 MB   |    Зарегистрирован:  22 дня   |    Скачан:  0 раз

Полного источника не было: Никогда

 
   
 
 
Автор Сообщение

star21 ®

Пол: Не указан

Стаж: 2 года

Сообщений: 355767

Создавать темы 28-Окт-2017 23:20

[Цитировать]

Из племени гончих псов Год выпуска: 2017
Страна: Россия
Студия: Первый канал, Медиа Конструктор
Жанр: Документальный
Продолжительность: 00:51:17
Перевод: Не требуется
Субтитры: НетРежиссёр: Евгения Лавренова
Продюсеры: Олег Вольнов, Людмила СнигиреваОписание: Фильм расскажет об уникальной гонке на собачьих упряжках — «Берингия», которая проводится на Камчатке вот уже 25 лет. В 1991 году Берингия была зарегистрирована в «Книге рекордов Гиннеса», как самая протяженная в мире. В гонке принимает участие 15 каюров, в каждой упряжке от 5 до 14 собак. За три недели участникам предстоит преодолеть более 1000 км вдоль побережья Камчатского полуострова от с. Эссо до с. Осора. Кто эти люди, которые участвуют в изматывающем марафоне в условиях Крайнего Севера? Что заставляет их преодолевать себя и силы природы? Любовь к экстриму или корыстный интерес?Доп. информация:
Автор релиза -
Источник для рипа - HDTV 1080i TS - моя запись с канала Первый HD от 15.03.2017 - http://rutracker.org/forum/viewtopic.php?t=5372735Рекламы нет!Сэмпл: https://yadi.sk/i/ZHx_-ZHE3FrUiyКачество видео: HDTVRip
Формат видео: AVIВидео: XviD, 720x400 (16:9), 25.000 fps, 1820 kbps, 0.253 bit/pixel
Аудио: Русский АС3, 48000 Гц, 2ch, 192 kbps

MediaInfo

ОбщееПолное имя                               : D:\Из.племени.гончих.псов.2017.HDTVRip-ylnian.aviФормат                                   : AVIФормат/Информация                        : Audio Video InterleaveРазмер файла                             : 742 МбайтПродолжительность                        : 51 м.Общий поток                              : 2021 Кбит/секНазвание фильма                          : Из.племени.гончих.псов.2017.HDTVRip-ylnianПрограмма кодирования                    : VirtualDubMod 1.5.10.2 (build 2540/release)Библиотека кодирования                   : VirtualDubMod build 2540/releaseВидеоИдентификатор                            : 0Формат                                   : MPEG-4 VisualПрофиль формата                          : Advanced Simple@L5Параметр BVOP формата                    : 1Параметр QPel формата                    : НетПараметр GMC формата                     : Без точки переходаПараметр матрицы формата                 : Default (MPEG)Идентификатор кодека                     : XVIDИдентификатор кодека/Подсказка           : XviDПродолжительность                        : 51 м.Битрейт                                  : 1820 Кбит/секШирина                                   : 720 пикселейВысота                                   : 400 пикселейСоотношение сторон                       : 16:9Частота кадров                           : 25,000 кадров/секЦветовое пространство                    : YUVСубдискретизация насыщенности            : 4:2:0Битовая глубина                          : 8 битТип развёртки                            : ПрогрессивнаяМетод сжатия                             : С потерямиБит/(Пиксели*Кадры)                      : 0.253Размер потока                            : 668 Мбайт (90%)Библиотека кодирования                   : XviD 67АудиоИдентификатор                            : 1Формат                                   : AC-3Формат/Информация                        : Audio Coding 3Расширение режима                        : CM (complete main)Параметр Endianness формата              : BigИдентификатор кодека                     : 2000Продолжительность                        : 51 м.Вид битрейта                             : ПостоянныйБитрейт                                  : 192 Кбит/секКаналы                                   : 2 каналаРасположение каналов                     : Front: L RЧастота                                  : 48,0 КГцЧастота кадров                           : 31,250 кадров/сек (1536 spf)Метод сжатия                             : С потерямиРазмер потока                            : 70,4 Мбайт (9%)Выравнивание                             : Разделение по промежуткамПродолжительность промежутка             : 40  мс. (1,00 видеокадр)Время предзагрузки промежутка            : 500  мс.Заголовок                                : RUS

Скриншот c названием фильма

Для скачки контента: [Установить программу-клиент] и кликнуть по - Скачать

[asmlocator.ru].t421232.torrent 
Торрент: Зарегистрирован [ 2017-10-28 23:20 ] · E402F2356315A702067D36BB3D350DBAF03AB9EE

Скачать .torrent

Скачать

15 KB

Статус: проверено
Скачан: 0 раз
Размер: 742 MB
terms.php
[Профиль] [ЛС]
Показать сообщения:    
Ответить на тему

Текущее время: 20-Ноя 15:31

Часовой пояс: UTC ± 0



Вы не можете начинать темы
Вы не можете отвечать на сообщения
Вы не можете редактировать свои сообщения
Вы не можете удалять свои сообщения
Вы не можете голосовать в опросах
Вы не можете прикреплять файлы к сообщениям
Вы можете скачивать файлы