(House) [CD] VA - Style - Defile Mix - 2006, FLAC (tracks+.cue), lossless

Ответить на тему
Статистика раздачи
Размер:  623 MB   |    Зарегистрирован:  22 дня   |    Скачан:  0 раз

Полного источника не было: Никогда

 
   
 
 
Автор Сообщение

star21 ®

Пол: Не указан

Стаж: 2 года

Сообщений: 355767

Создавать темы 28-Окт-2017 19:10

[Цитировать]

Style - Defile Mix Жанр: House
Носитель: CD
Страна-производитель диска (релиза): Россия
Год издания: 2006
Издатель (лейбл): Мегалайнер
Номер по каталогу: MLCD-0602
Аудиокодек: FLAC (*.flac)
Тип рипа: tracks+.cue
Битрейт аудио: lossless
Продолжительность: 68:17
Источник (релизер): обмен
Наличие сканов в содержимом раздачи: да
Треклист:01. Oliver Jean - Smile (3:55)
02. Syn - If you Love Somebody Set Them Free (RRevolution Edit) (4:00)
03. Omo - Nobody (Rulez) (5:51)
04. Moustache - Everywhere (Radio Edit) (4:19)
05. 7 Bears - Dale DJ (Rumbando Edit) (3:30)
06. Footprints - Baila (U. F. O. "Club Mix") (6:39)
07. DubZero - Move (Callea 4 Club) (2:32)
08. Karin De Ponti - Angels (Craze Radio Mix) (2:54)
09. Costarika - To Be Do (Base Version) (3:12)
10. Ultraklub - Time To Forget (Electro Version) (3:14)
11. Noir Alick - Release (Radio Edit) (3:20)
12. Feedback - Rollerskate (Radio Edit) (3:11)
13. Starchaser - West End Girls (2005 Starchaser Remix) (5:37)
14. Kurtis1 - Can't Stop Love (3:24)
15. D3D4 - SunFun (Radio Edit) (3:37)
16. Orsolia - Chupalo Todo (Dance Mix) (5:49)
17. Flanders - By My Side (Deflect Original Mix) (3:11)

Лог создания рипа

X Lossless Decoder version 20111113 (137.1)XLD extraction logfile from 2011-11-14 23:58:45 +0300Различные исполнители / Style Defile MixUsed drive : HL-DT-ST DVD-RW GH41N (revision PQ06)Ripper mode             : CDParanoia III 10.2Disable audio cache     : OK for the drive with a cache less than 2750KiBMake use of C2 pointers : NORead offset correction  : 667Max retry count         : 100Gap status              : Analyzed, AppendedTOC of the extracted CD     Track |   Start  |  Length  | Start sector | End sector    ---------------------------------------------------------        1  | 00:00:00 | 03:55:15 |         0    |    17639        2  | 03:55:15 | 04:00:00 |     17640    |    35639        3  | 07:55:15 | 05:51:37 |     35640    |    62001        4  | 13:46:52 | 04:19:11 |     62002    |    81437        5  | 18:05:63 | 03:30:00 |     81438    |    97187        6  | 21:35:63 | 06:39:15 |     97188    |   127127        7  | 28:15:03 | 02:32:33 |    127128    |   138560        8  | 30:47:36 | 02:53:45 |    138561    |   151580        9  | 33:41:06 | 03:12:00 |    151581    |   165980       10  | 36:53:06 | 03:14:37 |    165981    |   180567       11  | 40:07:43 | 03:19:60 |    180568    |   195552       12  | 43:27:28 | 03:11:22 |    195553    |   209899       13  | 46:38:50 | 05:37:33 |    209900    |   235207       14  | 52:16:08 | 03:23:56 |    235208    |   250488       15  | 55:39:64 | 03:36:63 |    250489    |   266751       16  | 59:16:52 | 05:48:63 |    266752    |   292914       17  | 65:05:40 | 03:11:00 |    292915    |   307239AccurateRip Summary    Track 01 : OK (confidence 1)    Track 02 : OK (confidence 1)    Track 03 : OK (confidence 1)    Track 04 : OK (confidence 1)    Track 05 : OK (confidence 1)    Track 06 : OK (confidence 1)    Track 07 : OK (confidence 1)    Track 08 : OK (confidence 1)    Track 09 : OK (confidence 1)    Track 10 : OK (confidence 1)    Track 11 : OK (confidence 1)    Track 12 : OK (confidence 1)    Track 13 : OK (confidence 1)    Track 14 : OK (confidence 1)    Track 15 : OK (confidence 1)    Track 16 : OK (confidence 1)    Track 17 : OK (confidence 1)        ->All tracks accurately ripped.All Tracks    Album gain             : -8.06 dB    Peak                   : 0.999969    Statistics        Read error                           : 0        Skipped (treated as error)           : 0        Edge jitter error (maybe fixed)      : 0        Atom jitter error (maybe fixed)      : 0        Drift error (maybe fixed)            : 0        Dropped bytes error (maybe fixed)    : 0        Duplicated bytes error (maybe fixed) : 0Track 01    Filename : /Users/Sorokinoff/Music/Rembo Music/Style - Defilé Mix [2006]/01 Oliver Jean - Smile.flac    Pre-gap length : 00:02:00    Track gain             : -8.12 dB    Peak                   : 0.944031    CRC32 hash (test run)  : D5BF4891    CRC32 hash             : D5BF4891    CRC32 hash (skip zero) : B5E14663    AccurateRip signature  : 6C265343        ->Accurately ripped! (confidence 1)    Statistics        Read error                           : 0        Skipped (treated as error)           : 0        Edge jitter error (maybe fixed)      : 0        Atom jitter error (maybe fixed)      : 0        Drift error (maybe fixed)            : 0        Dropped bytes error (maybe fixed)    : 0        Duplicated bytes error (maybe fixed) : 0        Inconsistency in error sectors       : 0Track 02    Filename : /Users/Sorokinoff/Music/Rembo Music/Style - Defilé Mix [2006]/02 Syn - If you Love Somebody Set Them Free (RRevolution Edit).flac    Track gain             : -7.99 dB    Peak                   : 0.999969    CRC32 hash (test run)  : AC2A110C    CRC32 hash             : AC2A110C    CRC32 hash (skip zero) : 65C18BD9    AccurateRip signature  : A73F7D04        ->Accurately ripped! (confidence 1)    Statistics        Read error                           : 0        Skipped (treated as error)           : 0        Edge jitter error (maybe fixed)      : 0        Atom jitter error (maybe fixed)      : 0        Drift error (maybe fixed)            : 0        Dropped bytes error (maybe fixed)    : 0        Duplicated bytes error (maybe fixed) : 0        Inconsistency in error sectors       : 0Track 03    Filename : /Users/Sorokinoff/Music/Rembo Music/Style - Defilé Mix [2006]/03 Omo - Nobody (Rulez).flac    Track gain             : -5.67 dB    Peak                   : 0.950775    CRC32 hash (test run)  : CA3759EF    CRC32 hash             : CA3759EF    CRC32 hash (skip zero) : FE5D66B6    AccurateRip signature  : 07DB534F        ->Accurately ripped! (confidence 1)    Statistics        Read error                           : 0        Skipped (treated as error)           : 0        Edge jitter error (maybe fixed)      : 0        Atom jitter error (maybe fixed)      : 0        Drift error (maybe fixed)            : 0        Dropped bytes error (maybe fixed)    : 0        Duplicated bytes error (maybe fixed) : 0        Inconsistency in error sectors       : 0Track 04    Filename : /Users/Sorokinoff/Music/Rembo Music/Style - Defilé Mix [2006]/04 Moustache - Everywhere (Radio Edit).flac    Track gain             : -9.04 dB    Peak                   : 0.999969    CRC32 hash (test run)  : 4CA9E674    CRC32 hash             : 4CA9E674    CRC32 hash (skip zero) : 7BCEF13E    AccurateRip signature  : C9ECCB9F        ->Accurately ripped! (confidence 1)    Statistics        Read error                           : 0        Skipped (treated as error)           : 0        Edge jitter error (maybe fixed)      : 0        Atom jitter error (maybe fixed)      : 0        Drift error (maybe fixed)            : 0        Dropped bytes error (maybe fixed)    : 0        Duplicated bytes error (maybe fixed) : 0        Inconsistency in error sectors       : 0Track 05    Filename : /Users/Sorokinoff/Music/Rembo Music/Style - Defilé Mix [2006]/05 7 Bears - Dale DJ (Rumbando Edit).flac    Track gain             : -6.67 dB    Peak                   : 0.944031    CRC32 hash (test run)  : 553B631E    CRC32 hash             : 553B631E    CRC32 hash (skip zero) : C1459252    AccurateRip signature  : 8737B685        ->Accurately ripped! (confidence 1)    Statistics        Read error                           : 0        Skipped (treated as error)           : 0        Edge jitter error (maybe fixed)      : 0        Atom jitter error (maybe fixed)      : 0        Drift error (maybe fixed)            : 0        Dropped bytes error (maybe fixed)    : 0        Duplicated bytes error (maybe fixed) : 0        Inconsistency in error sectors       : 0Track 06    Filename : /Users/Sorokinoff/Music/Rembo Music/Style - Defilé Mix [2006]/06 Footprints - Baila (U. F. O. "Club Mix").flac    Track gain             : -8.30 dB    Peak                   : 0.999969    CRC32 hash (test run)  : DD6E768E    CRC32 hash             : DD6E768E    CRC32 hash (skip zero) : 3A50C36B    AccurateRip signature  : ADCB340D        ->Accurately ripped! (confidence 1)    Statistics        Read error                           : 0        Skipped (treated as error)           : 0        Edge jitter error (maybe fixed)      : 0        Atom jitter error (maybe fixed)      : 0        Drift error (maybe fixed)            : 0        Dropped bytes error (maybe fixed)    : 0        Duplicated bytes error (maybe fixed) : 0        Inconsistency in error sectors       : 0Track 07    Filename : /Users/Sorokinoff/Music/Rembo Music/Style - Defilé Mix [2006]/07 DubZero - Move (Callea 4 Club).flac    Track gain             : -7.27 dB    Peak                   : 0.944031    CRC32 hash (test run)  : 0E9E0C16    CRC32 hash             : 0E9E0C16    CRC32 hash (skip zero) : 559F8206    AccurateRip signature  : 3C5AB793        ->Accurately ripped! (confidence 1)    Statistics        Read error                           : 0        Skipped (treated as error)           : 0        Edge jitter error (maybe fixed)      : 0        Atom jitter error (maybe fixed)      : 0        Drift error (maybe fixed)            : 0        Dropped bytes error (maybe fixed)    : 0        Duplicated bytes error (maybe fixed) : 0        Inconsistency in error sectors       : 0Track 08    Filename : /Users/Sorokinoff/Music/Rembo Music/Style - Defilé Mix [2006]/08 Karin De Ponti - Angels (Craze Radio Mix).flac    Track gain             : -6.27 dB    Peak                   : 0.944031    CRC32 hash (test run)  : 7333421A    CRC32 hash             : 7333421A    CRC32 hash (skip zero) : 76238A95    AccurateRip signature  : 13C826E0        ->Accurately ripped! (confidence 1)    Statistics        Read error                           : 0        Skipped (treated as error)           : 0        Edge jitter error (maybe fixed)      : 0        Atom jitter error (maybe fixed)      : 0        Drift error (maybe fixed)            : 0        Dropped bytes error (maybe fixed)    : 0        Duplicated bytes error (maybe fixed) : 0        Inconsistency in error sectors       : 0Track 09    Filename : /Users/Sorokinoff/Music/Rembo Music/Style - Defilé Mix [2006]/09 Costarika - To Be Do (Base Version).flac    Track gain             : -6.61 dB    Peak                   : 0.944031    CRC32 hash (test run)  : A40807DF    CRC32 hash             : A40807DF    CRC32 hash (skip zero) : 09D5C2EB    AccurateRip signature  : 44C8C675        ->Accurately ripped! (confidence 1)    Statistics        Read error                           : 0        Skipped (treated as error)           : 0        Edge jitter error (maybe fixed)      : 0        Atom jitter error (maybe fixed)      : 0        Drift error (maybe fixed)            : 0        Dropped bytes error (maybe fixed)    : 0        Duplicated bytes error (maybe fixed) : 0        Inconsistency in error sectors       : 0Track 10    Filename : /Users/Sorokinoff/Music/Rembo Music/Style - Defilé Mix [2006]/10 Ultraklub - Time To Forget (Electro Version).flac    Track gain             : -7.77 dB    Peak                   : 0.944031    CRC32 hash (test run)  : 00AD24A7    CRC32 hash             : 00AD24A7    CRC32 hash (skip zero) : 57EDCFFD    AccurateRip signature  : 962B043B        ->Accurately ripped! (confidence 1)    Statistics        Read error                           : 0        Skipped (treated as error)           : 0        Edge jitter error (maybe fixed)      : 0        Atom jitter error (maybe fixed)      : 0        Drift error (maybe fixed)            : 0        Dropped bytes error (maybe fixed)    : 0        Duplicated bytes error (maybe fixed) : 0        Inconsistency in error sectors       : 0Track 11    Filename : /Users/Sorokinoff/Music/Rembo Music/Style - Defilé Mix [2006]/11 Noir Alick - Release (Radio Edit).flac    Track gain             : -6.74 dB    Peak                   : 0.945435    CRC32 hash (test run)  : FEAB74EB    CRC32 hash             : FEAB74EB    CRC32 hash (skip zero) : 0A9D052E    AccurateRip signature  : ADD83251        ->Accurately ripped! (confidence 1)    Statistics        Read error                           : 0        Skipped (treated as error)           : 0        Edge jitter error (maybe fixed)      : 0        Atom jitter error (maybe fixed)      : 0        Drift error (maybe fixed)            : 0        Dropped bytes error (maybe fixed)    : 0        Duplicated bytes error (maybe fixed) : 0        Inconsistency in error sectors       : 0Track 12    Filename : /Users/Sorokinoff/Music/Rembo Music/Style - Defilé Mix [2006]/12 Feedback - Rollerskate (Radio Edit).flac    Track gain             : -6.25 dB    Peak                   : 0.951202    CRC32 hash (test run)  : 18C98A5D    CRC32 hash             : 18C98A5D    CRC32 hash (skip zero) : 65B8986E    AccurateRip signature  : FD201DAE        ->Accurately ripped! (confidence 1)    Statistics        Read error                           : 0        Skipped (treated as error)           : 0        Edge jitter error (maybe fixed)      : 0        Atom jitter error (maybe fixed)      : 0        Drift error (maybe fixed)            : 0        Dropped bytes error (maybe fixed)    : 0        Duplicated bytes error (maybe fixed) : 0        Inconsistency in error sectors       : 0Track 13    Filename : /Users/Sorokinoff/Music/Rembo Music/Style - Defilé Mix [2006]/13 Starchaser - West End Girls (2005 Starchaser Remix).flac    Track gain             : -4.43 dB    Peak                   : 0.944031    CRC32 hash (test run)  : 32E333C7    CRC32 hash             : 32E333C7    CRC32 hash (skip zero) : D13350D3    AccurateRip signature  : 81D2CF8E        ->Accurately ripped! (confidence 1)    Statistics        Read error                           : 0        Skipped (treated as error)           : 0        Edge jitter error (maybe fixed)      : 0        Atom jitter error (maybe fixed)      : 0        Drift error (maybe fixed)            : 0        Dropped bytes error (maybe fixed)    : 0        Duplicated bytes error (maybe fixed) : 0        Inconsistency in error sectors       : 0Track 14    Filename : /Users/Sorokinoff/Music/Rembo Music/Style - Defilé Mix [2006]/14 Kurtis1 - Can't Stop Love.flac    Track gain             : -7.58 dB    Peak                   : 0.944031    CRC32 hash (test run)  : 23D0383A    CRC32 hash             : 23D0383A    CRC32 hash (skip zero) : 90B80627    AccurateRip signature  : 4C350D2F        ->Accurately ripped! (confidence 1)    Statistics        Read error                           : 0        Skipped (treated as error)           : 0        Edge jitter error (maybe fixed)      : 0        Atom jitter error (maybe fixed)      : 0        Drift error (maybe fixed)            : 0        Dropped bytes error (maybe fixed)    : 0        Duplicated bytes error (maybe fixed) : 0        Inconsistency in error sectors       : 0Track 15    Filename : /Users/Sorokinoff/Music/Rembo Music/Style - Defilé Mix [2006]/15 D3D4 - SunFun (Radio Edit).flac    Track gain             : -7.16 dB    Peak                   : 0.944031    CRC32 hash (test run)  : 3DF134D5    CRC32 hash             : 3DF134D5    CRC32 hash (skip zero) : 718AFCB6    AccurateRip signature  : 2CA4C940        ->Accurately ripped! (confidence 1)    Statistics        Read error                           : 0        Skipped (treated as error)           : 0        Edge jitter error (maybe fixed)      : 0        Atom jitter error (maybe fixed)      : 0        Drift error (maybe fixed)            : 0        Dropped bytes error (maybe fixed)    : 0        Duplicated bytes error (maybe fixed) : 0        Inconsistency in error sectors       : 0Track 16    Filename : /Users/Sorokinoff/Music/Rembo Music/Style - Defilé Mix [2006]/16 Orsolia - Chupalo Todo (Dance Mix).flac    Track gain             : -10.77 dB    Peak                   : 0.999969    CRC32 hash (test run)  : C91CBEB8    CRC32 hash             : C91CBEB8    CRC32 hash (skip zero) : CC9CB442    AccurateRip signature  : 80B85A08        ->Accurately ripped! (confidence 1)    Statistics        Read error                           : 0        Skipped (treated as error)           : 0        Edge jitter error (maybe fixed)      : 0        Atom jitter error (maybe fixed)      : 0        Drift error (maybe fixed)            : 0        Dropped bytes error (maybe fixed)    : 0        Duplicated bytes error (maybe fixed) : 0        Inconsistency in error sectors       : 0Track 17    Filename : /Users/Sorokinoff/Music/Rembo Music/Style - Defilé Mix [2006]/17 Flanders - By My Side (Deflect Original Mix).flac    Track gain             : -6.85 dB    Peak                   : 0.944031    CRC32 hash (test run)  : C74FD282    CRC32 hash             : C74FD282    CRC32 hash (skip zero) : 84BA5C1C    AccurateRip signature  : 1A023E5F        ->Accurately ripped! (confidence 1)    Statistics        Read error                           : 0        Skipped (treated as error)           : 0        Edge jitter error (maybe fixed)      : 0        Atom jitter error (maybe fixed)      : 0        Drift error (maybe fixed)            : 0        Dropped bytes error (maybe fixed)    : 0        Duplicated bytes error (maybe fixed) : 0        Inconsistency in error sectors       : 0No errors occurredEnd of status report

Содержание индексной карты (.CUE)

TITLE "Style Defile Mix"REM GENRE "Lo-Fi"REM DATE "2006"REM DISCID 00100011FILE "01 Oliver Jean - Smile.wav" WAVE  TRACK 01 AUDIO    TITLE "Smile"    PERFORMER "Oliver Jean"    FLAGS DCP    INDEX 01 00:00:00FILE "02 Syn - If you Love Somebody Set Them Free (RRevolution Edit).wav" WAVE  TRACK 02 AUDIO    TITLE "If you Love Somebody Set Them Free (RRevolution Edit)"    PERFORMER "Syn"    FLAGS DCP    INDEX 01 00:00:00FILE "03 Omo - Nobody (Rulez).wav" WAVE  TRACK 03 AUDIO    TITLE "Nobody (Rulez)"    PERFORMER "Omo"    FLAGS DCP    INDEX 01 00:00:00FILE "04 Moustache - Everywhere (Radio Edit).wav" WAVE  TRACK 04 AUDIO    TITLE "Everywhere (Radio Edit)"    PERFORMER "Moustache"    FLAGS DCP    INDEX 01 00:00:00FILE "05 7 Bears - Dale DJ (Rumbando Edit).wav" WAVE  TRACK 05 AUDIO    TITLE "Dale DJ (Rumbando Edit)"    PERFORMER "7 Bears"    FLAGS DCP    INDEX 01 00:00:00FILE "06 Footprints - Baila (U. F. O. "Club Mix").wav" WAVE  TRACK 06 AUDIO    TITLE "Baila (U. F. O. "Club Mix")"    PERFORMER "Footprints"    FLAGS DCP    INDEX 01 00:00:00FILE "07 DubZero - Move (Callea 4 Club).wav" WAVE  TRACK 07 AUDIO    TITLE "Move (Callea 4 Club)"    PERFORMER "DubZero"    FLAGS DCP    INDEX 01 00:00:00FILE "08 Karin De Ponti - Angels (Craze Radio Mix).wav" WAVE  TRACK 08 AUDIO    TITLE "Angels (Craze Radio Mix)"    PERFORMER "Karin De Ponti"    FLAGS DCP    INDEX 01 00:00:00FILE "09 Costarika - To Be Do (Base Version).wav" WAVE  TRACK 09 AUDIO    TITLE "To Be Do (Base Version)"    PERFORMER "Costarika"    FLAGS DCP    INDEX 01 00:00:00FILE "10 Ultraklub - Time To Forget (Electro Version).wav" WAVE  TRACK 10 AUDIO    TITLE "Time To Forget (Electro Version)"    PERFORMER "Ultraklub"    FLAGS DCP    INDEX 01 00:00:00FILE "11 Noir Alick - Release (Radio Edit).wav" WAVE  TRACK 11 AUDIO    TITLE "Release (Radio Edit)"    PERFORMER "Noir Alick"    FLAGS DCP    INDEX 01 00:00:00FILE "12 Feedback - Rollerskate (Radio Edit).wav" WAVE  TRACK 12 AUDIO    TITLE "Rollerskate (Radio Edit)"    PERFORMER "Feedback"    FLAGS DCP    INDEX 01 00:00:00FILE "13 Starchaser - West End Girls (2005 Starchaser Remix).wav" WAVE  TRACK 13 AUDIO    TITLE "West End Girls (2005 Starchaser Remix)"    PERFORMER "Starchaser"    FLAGS DCP    INDEX 01 00:00:00FILE "14 Kurtis1 - Can't Stop Love.wav" WAVE  TRACK 14 AUDIO    TITLE "Can't Stop Love"    PERFORMER "Kurtis1"    FLAGS DCP    INDEX 01 00:00:00FILE "15 D3D4 - SunFun (Radio Edit).wav" WAVE  TRACK 15 AUDIO    TITLE "SunFun (Radio Edit)"    PERFORMER "D3D4"    FLAGS DCP    INDEX 01 00:00:00FILE "16 Orsolia - Chupalo Todo (Dance Mix).wav" WAVE  TRACK 16 AUDIO    TITLE "Chupalo Todo (Dance Mix)"    PERFORMER "Orsolia"    FLAGS DCP    INDEX 01 00:00:00FILE "17 Flanders - By My Side (Deflect Original Mix).wav" WAVE  TRACK 17 AUDIO    TITLE "By My Side (Deflect Original Mix)"    PERFORMER "Flanders"    FLAGS DCP    INDEX 01 00:00:00

Для скачки контента: [Установить программу-клиент] и кликнуть по - Скачать

[asmlocator.ru].t421038.torrent 
Торрент: Зарегистрирован [ 2017-10-28 19:10 ] · CB6A97E5D42A7A6A5F1646545B7B1F2A9D332859

Скачать .torrent

Скачать

14 KB

Статус: проверено
Скачан: 0 раз
Размер: 623 MB
terms.php
[Профиль] [ЛС]
Показать сообщения:    
Ответить на тему

Текущее время: 20-Ноя 15:30

Часовой пояс: UTC ± 0



Вы не можете начинать темы
Вы не можете отвечать на сообщения
Вы не можете редактировать свои сообщения
Вы не можете удалять свои сообщения
Вы не можете голосовать в опросах
Вы не можете прикреплять файлы к сообщениям
Вы можете скачивать файлы