ITTF Pro Tour Grand Finals 2008. Мужчины, женщины. Четвертьфиналы, полуфиналы и финалы [2008, Настольный теннис, TVRip, XviD, НТВ-Плюс]

Reply to topic
DL-List and Torrent activity
Size:  5.14 GB   |    Registered:  3 years 4 months   |    Completed:  0 times

Seeder not seen: 3 months 22 days

 
   
 
 
Author Message

star21 ®

Gender: Female

Longevity: 3 years 7 months

Posts: 552147

Location: Екатеринбург

Post 23-Jan-2016 17:00

[Quote]

ITTF Pro Tour Grand Finals 2008. Мужчины, женщины. Четвертьфиналы, полуфиналы и финалы
Год выпуска: 2008
Вид спорта: Настольный теннис
Комментарий: Профессиональный одноголосый
Язык комментариев: Русский
Описание: Личные мужские четвертьфиналы, личный женский четвертьфинал, личные мужские полуфиналы, а также финалы в одиночных разрядах у мужчин и женщин и в парном женском разряде на итоговом турнире Про тура по настольному теннису в 2008 году.
Автор рипа: sanchez2011
Качество: TVRip
Формат: AVI
Видео кодек: XviD
Аудио кодек: MP3
Видео: MPEG-4 Visual (H263) 704x528 (4:3) 25.00fps 1800kbps
Аудио: MPEG Audio Layer 3 48000Hz stereo 128kbps

Скриншоты

MediaInfo

GeneralComplete name                            : C:\Users\admin\Desktop\Grand Final 2008\MS QF Самсонов BLR - Jiang Tyani HKG.aviFormat                                   : AVIFormat/Info                              : Audio Video InterleaveFile size                                : 531 MiBDuration                                 : 38mn 18sOverall bit rate                         : 1 937 KbpsWriting application                      : VirtualDubMod 1.5.10.2 (build 2540/release)Writing library                          : VirtualDubMod build 2540/release
VideoID : 0Format : MPEG-4 VisualFormat profile : Advanced Simple@L5Format settings, BVOP : 2Format settings, QPel : NoFormat settings, GMC : No warppointsFormat settings, Matrix : Default (H.263)Muxing mode : Packed bitstreamCodec ID : XVIDCodec ID/Hint : XviDDuration : 38mn 18sBit rate : 1 799 KbpsWidth : 704 pixelsHeight : 528 pixelsDisplay aspect ratio : 4:3Frame rate : 25.000 fpsColor space : YUVChroma subsampling : 4:2:0Bit depth : 8 bitsScan type : ProgressiveCompression mode : LossyBits/(Pixel*Frame) : 0.194Stream size : 493 MiB (93%)Writing library : XviD 64
AudioID : 1Format : MPEG AudioFormat version : Version 1Format profile : Layer 3Mode : Joint stereoMode extension : MS StereoCodec ID : 55Codec ID/Hint : MP3Duration : 38mn 18sBit rate mode : ConstantBit rate : 128 KbpsChannel(s) : 2 channelsSampling rate : 48.0 KHzCompression mode : LossyStream size : 35.1 MiB (7%)Alignment : Aligned on interleavesInterleave, duration : 40 ms (1.00 video frame)Interleave, preload duration : 504 ms

Список матчей

1. MS QF Ma Lin CHN - Chen Qi CHN
2. MS QF Ma Long CHN - Wang Liqin CHN
3. MS QF Самсонов BLR - Jiang Tyani HKG
4. WS QF Kim Kuyng Ah KOR - Wang Yegu SIN
5. MS SF Самсонов BLR - Wang Hao CHN
6. MS SF Ma Lin CHN - Ma Long CHN
7. WD F Li Jiawei, Sun Beibei SIN - Kim Kyungah, Park Miyoung KOR
8. WS F Guo Yan CHN - Guo Yue CHN
9. MS F Ma Long CHN - Wang Hao CHN

Результаты и продолжительность

Общая продолжительность: 06:19:51
1. MS QF Ma Lin CHN - Chen Qi CHN (00:49:02)
(4-3) 11:7, 8:11, 6:11, 2:11, 11:8, 11:8, 11:8
2. MS QF Ma Long CHN - Wang Liqin CHN (00:24:27)
(4-0) 11:1, 15:13, 11:4, 11:3
3. MS QF Самсонов BLR - Jiang Tyani HKG (00:38:18)
(4-1) 11:6, 12:10, 11:4, 8:11, 11:4
4. WS QF Kim Kuyng Ah KOR - Wang Yegu SIN (01:01:28)
(3-4) 11:7, 9:11, 11:7, 4:11, 11:8, 3:11, 9:11
5. MS SF Самсонов BLR - Wang Hao CHN (00:22:19)
(0-4) 9:11, 6:11, 8:11, 6:11
6. MS SF Ma Lin CHN - Ma Long CHN (00:42:22)
(1-4) 15:13, 3:11, 7:11, 5:11, 10:12
7. WD F Li Jiawei, Sun Beibei SIN - Kim Kyungah, Park Miyoung KOR (00:38:42)
(4-1) 11:5, 6:11, 11:9, 11:8, 11:4
8. WS F Guo Yan CHN - Guo Yue CHN (01:09:29)
(4-2) 13:11, 9:11, 15:13, 11:5, 12:14, 11:8
9. MS F Ma Long CHN - Wang Hao CHN (00:33:40)
(4-0) 13:11, 11:9, 11:9, 11:5

To download the content you need:
1. Download and install torrent client [for Windows] or for mobile system
2. Click on [Download]
Attention.
If the test YOU are NOT a ROBOT - does not work, then You are using an outdated browser.
Install the current browser and click on [Download]
Security: torrent client is allowed by Kaspersky.

[asmlocator.ru].t42094.torrent 
Torrent: Registered [ 2016-01-23 17:00 ] · 28363A99384B71D56E737BF7774BB0A4264B283D

Download .torrent

Download

14 KB

Status: checked
Completed: 0 times
Size: 5.14 GB
terms.php
[Profile] [PM]

REDMI

Gender:

Longevity: 5 months 18 days

Posts: 2

Location: Москва

Post 10-Jan-2019 07:57 (after 2 years 11 months)

[Quote]

Здравствуйте! Хотелось бы скачать этот турнир!
Есть такая возможность? К сожалению, на протяжении недели не раздается ((
[Profile] [PM]

REDMI

Gender:

Longevity: 5 months 18 days

Posts: 2

Location: Москва

Post 10-Jan-2019 07:58 (after 1 minute)

[Quote]

star21, день добрый! Вы бы не могли посодействовать скачиванию файла?
[Profile] [PM]
Display posts:    
Reply to topic

Current time is: 16-Jun 23:59

All times are UTC ± 0



You cannot post new topics in this forum
You cannot reply to topics in this forum
You cannot edit your posts in this forum
You cannot delete your posts in this forum
You cannot vote in polls in this forum
You cannot attach files in this forum
You can download files in this forum