Монтана (Александр Атанесян) [2008, боевик, криминал, приключения, DVDRip-AVC]

Ответить на тему
Статистика раздачи
Размер:  1,93 GB   |    Зарегистрирован:  3 года   |    Скачан:  0 раз

Полного источника не было: Никогда

 
   
 
 
Автор Сообщение

star21 ®

Пол: Женский

Стаж: 3 года

Сообщений: 552916

Откуда: Екатеринбург

Создавать темы 11-Ноя-2015 07:23

[Цитировать]

Монтана (Александр Атанесян) [2008, боевик, криминал, приключения, DVDRip-AVC] Торрент
Монтана
Формат: DVDRip-AVC, MKV, H.264, AC3
Режиссер: Александр Атанесян
Жанр: боевик, криминал, приключения
Продолжительность: 01:33:31
Год выпуска: 2008
В ролях: Олег Тактаров, Игорь Миркурбанов, Скарлетт МакАлистер, Нолан Гулд, Игорь Жижикин, Стивен Браун, Джефф Доба, Джулиан Кейн, Кристин Келлогг-Даррин, Дэвид Лайт, Мэтт Райан, Дэвид Джин Томас, Сьюзан Флинн, Глеб Степанов, Александр Атанесян, Денис Нагретдинов, Петр Скворцов
Описание:
Монтана… Страна грез, синих горных озер, горячих гейзеров и крутых ковбоев. В детстве Николай и Виктор мечтали о ней в детдоме.… Теперь они оба на пути в Монтану. На одном из крутых поворотов судьбы Николай встречает любовь. Впервые в жизни он счастлив, но чувствует, что за ним идет охота…

Видео: 1024x576 (16:9), 23.976 fps, AVC (х.264) ~2500 kbps avg, 0.177 bit/pixel
Аудио: 48 kHz, АС3, 6 ch, Front: L C R, Side: L R, LFE ~448.00 kbps avg

MI

Общее
Полное имя : E:2Montana.2008.x264.BDRip.(AVC).mkv
Формат : Matroska
Размер файла : 1,93 Гбайт
Продолжительность : 1 ч. 33 м.
Общий поток : 2948 Кбит/сек
Название фильма : Montana.2008.x264.BDRip.(AVC)
Дата кодирования : UTC 2013-07-24 17:15:19
Программа кодирования : mkvmerge v4.0.0 ('The Stars were mine') сборка от Jun 6 2010 16:18:42
Библиотека кодирования : libebml v1.0.0 + libmatroska v1.0.0
Видео
Идентификатор : 1
Формат : AVC
Формат/Информация : Advanced Video Codec
Профиль формата :
Параметр CABAC формата : Да
Параметр ReFrames формата : 8 кадров
Идентификатор кодека : V_MPEG4/ISO/AVC
Продолжительность : 1 ч. 33 м.
Битрейт : 2500 Кбит/сек
Ширина : 1024 пикс.
Высота : 576 пикс.
Соотношение сторон : 16:9
Частота кадров : 23,976 кадр/сек
Цветовое пространство : YUV
Подвыборка цветности : 4:2:0
Битовая глубина : 8 бит
Тип развёртки : Прогрессивная
Бит/(Пиксели*Кадры) : 0.177
Размер потока : 1,60 Гбайт (83%)
Заголовок : Rip by Enigma-Vladislav71
Библиотека кодирования : x264 core 129 r2245 bc13772
Настройки программы : cabac=1 / ref=8 / deblock=1:-2:-2 / analyse=0x3:0x133 / me=umh / subme=11 / psy=1 / psy_rd=1.00:0.00 / mixed_ref=1 / me_range=48 / chroma_me=1 / trellis=2 / 8x8dct=1 / cqm=0 / deadzone=21,11 / fast_pskip=0 / chroma_qp_offset=-2 / threads=3 / lookahead_threads=1 / sliced_threads=0 / nr=0 / decimate=0 / interlaced=0 / bluray_compat=0 / constrained_intra=0 / bframes=8 / b_pyramid=2 / b_adapt=2 / b_bias=0 / direct=3 / weightb=1 / open_gop=0 / weightp=2 / keyint=240 / keyint_min=23 / scenecut=40 / intra_refresh=0 / rc_lookahead=40 / rc=2pass / mbtree=1 / bitrate=2500 / ratetol=1.0 / qcomp=0.60 / qpmin=10 / qpmax=51 / qpstep=4 / cplxblur=20.0 / qblur=0.5 / ip_ratio=1.40 / aq=2:1.00
Язык : English
Аудио
Идентификатор : 2
Формат : AC-3
Формат/Информация : Audio Coding 3
Расширение режима : CM (complete main)
Идентификатор кодека : A_AC3
Продолжительность : 1 ч. 33 м.
Вид битрейта : Постоянный
Битрейт : 448 Кбит/сек
Каналы : 6 каналов
Расположение каналов : Front: L C R, Side: L R, LFE
Частота : 48,0 КГц
Битовая глубина : 16 бит
Метод сжатия : С потерями
Размер потока : 300 Мбайт (15%)
Язык : Russian

Для скачки контента: [Установить программу-клиент] и кликнуть по - СкачатьБезопасность: клиент проверен АВ Касперского

[asmlocator.ru].t42.torrent 
Торрент: Зарегистрирован [ 2015-11-11 07:23 ] · CBCE6D8FD61BEEDFA8C02AE8ECDD279AA1D9245F

Скачать .torrent

Скачать

21 KB

Статус: проверено
Скачан: 0 раз
Размер: 1,93 GB
terms.php
[Профиль] [ЛС]
Показать сообщения:    
Ответить на тему

Текущее время: 18-Ноя 06:55

Часовой пояс: UTC ± 0



Вы не можете начинать темы
Вы не можете отвечать на сообщения
Вы не можете редактировать свои сообщения
Вы не можете удалять свои сообщения
Вы не можете голосовать в опросах
Вы не можете прикреплять файлы к сообщениям
Вы можете скачивать файлы