(Electronic, Berlin School) [CD] Mario Schönwälder / Schonwalder - Close By My Distance - 1992, FLAC (image+.cue), lossless

Reply to topic
DL-List and Torrent activity
Size:  347 MB   |    Registered:  1 year 7 months   |    Completed:  1 time

Seeder not seen: 39 minutes

 
   
 
 
Author Message

star21 ®

Gender: Female

Longevity: 3 years 6 months

Posts: 552208

Location: Екатеринбург

Post 24-Oct-2017 08:31

[Quote]

Mario Schönwälder / Close By My Distance Жанр: Electronic, Berlin School
Носитель: CD
Страна-производитель диска (релиза): Germany
Год издания: 1992
Издатель (лейбл): Manikin Records
Номер по каталогу: MRCD 7001
Страна исполнителя (группы): Germany
Аудиокодек: FLAC (*.flac)
Тип рипа: image+.cue
Битрейт аудио: lossless
Продолжительность: 01:08:29
Источник (релизер): Original CD
Наличие сканов в содержимом раздачи: нет
Треклист:1. Let The Rhythm Comin' On You 10:40
2. Les Yeux Sans Visage 7:53
3. Sems U' Kanar 10:45
4. The Point Of Impact 7:03
5. Memories Of Oz 13:32
Close By My Distance 13:15
6a. a) Sortilege 3:45
6b. b) Chapter Two 9:30
-
7. Farewell From Heaven 5:08

Лог создания рипа

Exact Audio Copy V1.0 beta 3 from 29. August 2011EAC extraction logfile from 30. April 2016, 18:21Mario Schönwälder / Close By My DistanceUsed drive  : PIONEER BD-RW   BDR-208M   Adapter: 0  ID: 0Read mode               : SecureUtilize accurate stream : YesDefeat audio cache      : YesMake use of C2 pointers : NoRead offset correction                      : 667Overread into Lead-In and Lead-Out          : NoFill up missing offset samples with silence : YesDelete leading and trailing silent blocks   : NoNull samples used in CRC calculations       : YesUsed interface                              : Native Win32 interface for Win NT & 2000Used output format              : User Defined EncoderSelected bitrate                : 1024 kBit/sQuality                         : HighAdd ID3 tag                     : NoCommand line compressor         : C:\Program Files (x86)\Exact Audio Copy\Flac\flac.exeAdditional command line options : -V -8 -T "Date=%year%" -T "Genre=%genre%" %source%TOC of the extracted CD     Track |   Start  |  Length  | Start sector | End sector    ---------------------------------------------------------        1  |  0:00.00 | 10:35.00 |         0    |    47624        2  | 10:35.00 |  8:00.00 |     47625    |    83624        3  | 18:35.00 | 11:03.50 |     83625    |   133399        4  | 29:38.50 |  7:11.25 |    133400    |   165749        5  | 36:50.00 | 13:34.00 |    165750    |   226799        6  | 50:24.00 | 13:01.00 |    226800    |   285374        7  | 63:25.00 |  5:03.45 |    285375    |   308144Range status and errorsSelected range     Filename C:\Users\jean-mini\Music\Mario Schönwälder - Close By My Distance.wav     Peak level 97.7 %     Extraction speed 7.9 X     Range quality 100.0 %     Test CRC 5BC2FF26     Copy CRC 5BC2FF26     Copy OKNo errors occurredAccurateRip summaryTrack  1  accurately ripped (confidence 4)  [D10AB47C]  (AR v2)Track  2  accurately ripped (confidence 4)  [A31CEFEC]  (AR v2)Track  3  accurately ripped (confidence 4)  [D72839F9]  (AR v2)Track  4  accurately ripped (confidence 4)  [51B9CA7D]  (AR v2)Track  5  accurately ripped (confidence 4)  [65F0F78A]  (AR v2)Track  6  accurately ripped (confidence 4)  [D8C6E05A]  (AR v2)Track  7  accurately ripped (confidence 4)  [7DC26D51]  (AR v2)All tracks accurately rippedEnd of status report==== Log checksum E08C9224748C3231B7F2F238709CB3BCBF3CDFC90FF973ECEE156ED638391080 ====
Доп. информация:

To download the content you need:
1. Download and install torrent client [for Windows] or for mobile system
2. Click on [Download]
Attention.
If the test YOU are NOT a ROBOT - does not work, then You are using an outdated browser.
Install the current browser and click on [Download]
Security: torrent client is allowed by Kaspersky.

[asmlocator.ru].t416557.torrent 
Torrent: Registered [ 2017-10-24 08:30 ] · 78D3BC48F8FD4373C42A7431CCAF144C8251C48A

Download .torrent

Download

14 KB

Status: checked
Completed: 1 times
Size: 347 MB
terms.php
[Profile] [PM]

gr16043k

Gender:

Longevity: 2 months 27 days

Posts: 15

Location: крымск

Post 05-Mar-2019 17:44 (after 1 year 4 months)

[Quote]

спасибо, но CUE файл тут бесполезный, не работает ни с флак, ни с мп3
[Profile] [PM]
Display posts:    
Reply to topic

Current time is: 24-May 14:09

All times are UTC ± 0



You cannot post new topics in this forum
You cannot reply to topics in this forum
You cannot edit your posts in this forum
You cannot delete your posts in this forum
You cannot vote in polls in this forum
You cannot attach files in this forum
You can download files in this forum