[TR24][OF] PJ Harvey - The Hope Six Demolition Project - 2016 (Alternative, Indie Rock)

Ответить на тему
Статистика раздачи
Размер:  444 MB   |    Зарегистрирован:  28 дней   |    Скачан:  0 раз

Полного источника не было: Никогда

 
   
 
 
Автор Сообщение

star21 ®

Пол: Не указан

Стаж: 2 года

Сообщений: 355767

Создавать темы 22-Окт-2017 19:30

[Цитировать]

PJ Harvey / The Hope Six Demolition Project Формат записи/Источник записи: [TR24][OF]
Наличие водяных знаков: Нет
Год издания/переиздания диска: 2016
Жанр: Alternative, Indie Rock
Издатель(лейбл): Vagrant Records
Продолжительность: 00:41:45
Наличие сканов в содержимом раздачи: НетТреклист:
01. The Community Of Hope (2:23)
02. The Ministry Of Defence (4:11)
03. A Line In The Sand (3:33)
04. Chain Of Keys (3:09)
05. River Anacostia (4:57)
06. Near The Memorials To Vietnam And Lincoln (2:59)
07. The Orange Monkey (2:47)
08. Medicinals (2:20)
09. The Ministry Of Social Affairs (4:10)
10. The Wheel (5:38)
11. Dollar, Dollar (5:38)Контейнер: FLAC (*.flac)
Тип рипа: tracksРазрядность: 24/44,1
Формат: WAV (flac.ape.wv)
Количество каналов: 2.0

Лог проверки качества

foobar2000 1.3.8 / Dynamic Range Meter 1.1.1log date: 2016-04-15 20:18:08--------------------------------------------------------------------------------Analyzed: PJ Harvey / The Hope Six Demolition Project--------------------------------------------------------------------------------DR         Peak         RMS     Duration Track--------------------------------------------------------------------------------DR9       -0.99 dB   -12.15 dB      2:23 01-The Community Of HopeDR10      -1.00 dB   -13.55 dB      4:11 02-The Ministry Of DefenceDR9       -0.99 dB   -11.47 dB      3:33 03-A Line In The SandDR9       -0.99 dB   -11.88 dB      3:09 04-Chain Of KeysDR10      -1.00 dB   -15.49 dB      4:57 05-River AnacostiaDR9       -1.00 dB   -12.04 dB      2:59 06-Near The Memorials To Vietnam And LincolnDR9       -0.99 dB   -12.09 dB      2:47 07-The Orange MonkeyDR9       -0.99 dB   -12.71 dB      2:20 08-MedicinalsDR7       -1.08 dB   -10.38 dB      4:10 09-The Ministry Of Social AffairsDR8       -0.94 dB   -10.51 dB      5:38 10-The WheelDR11      -1.00 dB   -15.11 dB      5:38 11-Dollar, Dollar--------------------------------------------------------------------------------Number of tracks:  11Official DR value: DR9Samplerate:        44100 HzChannels:          2Bits per sample:   24Bitrate:           1313 kbpsCodec:             FLAC================================================================================

Скриншот спектра частот

Источник (релизер):

Для скачки контента: [Установить программу-клиент] и кликнуть по - Скачать

[asmlocator.ru].t415012.torrent 
Торрент: Зарегистрирован [ 2017-10-22 19:30 ] · 8167C4CF85BA83381DAEF32864D764AFCAFBC5AE

Скачать .torrent

Скачать

4 KB

Статус: проверено
Скачан: 0 раз
Размер: 444 MB
terms.php
[Профиль] [ЛС]
Показать сообщения:    
Ответить на тему

Текущее время: 20-Ноя 15:29

Часовой пояс: UTC ± 0



Вы не можете начинать темы
Вы не можете отвечать на сообщения
Вы не можете редактировать свои сообщения
Вы не можете удалять свои сообщения
Вы не можете голосовать в опросах
Вы не можете прикреплять файлы к сообщениям
Вы можете скачивать файлы