(Techno) VII Circle - Titan - 2016, MP3, 320 kbps

Ответить на тему
Статистика раздачи
Размер:  69 MB   |    Зарегистрирован:  12 дней   |    Скачан:  0 раз

Полного источника не было: Никогда

 
   
 
 
Автор Сообщение

star21 ®

Пол: Не указан

Стаж: 1 год 11 месяцев

Сообщений: 355767

Создавать темы 06-Окт-2017 15:10

[Цитировать]

VII Circle / Titan Жанр: Techno
Страна исполнителя (группы): Italy
Дата издания: 22.01.2016
Лейбл: Stem Records
Аудиокодек: MP3
Битрейт аудио: 320 kbps
Тип рипа: tracks
Продолжительность: 00:29:51
Наличие сканов в содержимом раздачи: нетТреклист:
1. Titan - 7:18
2. Unbroken - 6:50
3. Unbroken (Locked Groove Remix) - 7:17
4. Lone - 8:26

Об исполнителе (группе)

VII Circle is four-hands project.
Andrea Vallisneri and Andrea Casari are the two components.
The background of these two producers founds its roots in Rock, Indie music and experimentation.
Two visions and approaches to music very different: they clash and come together to find their own unique form of music production, characterised by hypnotic and dark flavors. Wilderness and shadows give way to electronic sounds without mediation.
It's always difficult to border an artist to a single musical genre and the production of VII Circle can be traced to the Deep and the Techno, but more generally can find inspiration also in Electronic and Ambient music.
Andrea Vallisneri will be focused on the dj set, while Andrea Casari will be given the task of a possible live interpretation, but the latter is still a project under construction.

Об альбоме

Early January 2016 will see Stem Records inaugurate a new year for the imprint with VII Circle's 'Titan' EP, accompanied by a remix from Locked Groove. VII Circle is the guise of Italian duo Andrea Vallisneri and Andrea Casari, the duo recently formed the alias and launch it here via the Stem Records imprint. Since its inception Stem has released a string of material from the likes of Legowelt, Agents Of Time, Lake People and Winter Son, always delivering a dark and brooding style making VII Circle's material perfectly aligned for the imprint. Opening things up is 'Titan' which employs subtly blossoming low-end tones and shuffled drums alongside jazzy synth licks and menacing bass rumbles, already picking up support from Mind Against and the remix artist on this package, Locked Groove this one set the tone nicely for what's to follow. Up next is Locked Groove's rework of 'Unbroken', stamping his signature energetic style on things with penetrating rhythms, vacillating sub bubbles and dubby stab sequences. The original of 'Unbroken' follows and strips back the vibe to a more reduced, ethereal state with shadowy synth pads, echoing percussive swirls and evolving dynamism in abundance. Closing is 'Lone' which sees the duo fuse eerie atmospherics and swelling synth drones with stripped-back, robust rhythms to round off the package on a hypnotic tip.

Скриншот проверки качества материала

foobar2000 1.3.9 / Замер динамического диапазона (DR) 1.1.1
Дата отчёта: 2016-01-24 16:57:37--------------------------------------------------------------------------------
Анализ: VII Circle / Titan EP
--------------------------------------------------------------------------------DR Пики RMS Продолжительность трека
--------------------------------------------------------------------------------
DR9 -0.28 дБ -10.27 дБ 7:18 01-Titan
DR7 -0.16 дБ -8.33 дБ 6:51 02-Unbroken
DR7 0.00 дБ -8.16 дБ 7:17 03-Unbroken (Locked Groove Remix)
DR8 -0.14 дБ -9.47 дБ 8:26 04-Lone
--------------------------------------------------------------------------------Количество треков: 4
Реальные значения DR: DR8Частота: 44100 Гц
Каналов: 2
Битрейт: 320 кбит/с
Кодек: MP3

Для скачки контента: [Установить программу-клиент] и кликнуть по - Скачать

[asmlocator.ru].t399928.torrent 
Торрент: Зарегистрирован [ 2017-10-06 15:10 ] · D0DD9B4E1654867F9B80266F3C8AEB586D0CD28E

Скачать .torrent

Скачать

22 KB

Статус: проверено
Скачан: 0 раз
Размер: 69 MB
terms.php
[Профиль] [ЛС]
Показать сообщения:    
Ответить на тему

Текущее время: 19-Окт 07:11

Часовой пояс: UTC ± 0



Вы не можете начинать темы
Вы не можете отвечать на сообщения
Вы не можете редактировать свои сообщения
Вы не можете удалять свои сообщения
Вы не можете голосовать в опросах
Вы не можете прикреплять файлы к сообщениям
Вы можете скачивать файлы