[TR24][OF] The Doobie Brothers - Livin\' On The Fault Line - 1977 (2016) (Rock)

Ответить на тему
Статистика раздачи
Размер:  1,33 GB   |    Зарегистрирован:  14 дней   |    Скачан:  0 раз

Полного источника не было: Никогда

 
   
 
 
Автор Сообщение

star21 ®

Пол: Не указан

Стаж: 1 год 11 месяцев

Сообщений: 355767

Создавать темы 05-Окт-2017 06:56

[Цитировать]

The Doobie Brothers / Livin' On The Fault Line Формат записи/Источник записи: [TR24][OF]
Наличие водяных знаков: Нет
Год издания/переиздания диска: 1977 (2016)
Жанр: Rock
Издатель(лейбл): Rhino, Warner Bros.
Продолжительность: 35:15
Наличие сканов в содержимом раздачи: Front PDF
Источник (релизер): Контейнер: FLAC (*.flac)
Тип рипа: tracksРазрядность: 24/192
Формат: PCM
Количество каналов: 2.0Треклист:01. You're Made That Way (3:37)
02. Echoes Of Love (3:03)
03. Little Darling (I Need You) (3:29)
04. You Belong To Me (3:08)
05. Livin' On The Fault Line (4:49)
06. Nothin' But A Heartache (3:11)
07. Chinatown (5:00)
08. There's A Light (4:17)
09. Need A Lady (3:27)
10. Larry The Logger Two-Step (1:18)

Лог проверки качества

foobar2000 1.1.10 / Dynamic Range Meter 1.1.1log date: 2017-01-03 13:54:54--------------------------------------------------------------------------------Analyzed: The Doobie Brothers / Livin' On The Fault Line (2016 Remastered)--------------------------------------------------------------------------------DR         Peak         RMS     Duration Track--------------------------------------------------------------------------------DR12      -0.10 dB   -13.39 dB      3:36 ?-You're Made That WayDR10      -0.10 dB   -13.43 dB      3:03 ?-Echoes Of LoveDR11      -0.10 dB   -13.36 dB      3:29 ?-Little Darling (I Need You)DR11      -0.10 dB   -12.83 dB      3:07 ?-You Belong To MeDR10      -0.10 dB   -12.18 dB      4:48 ?-Livin' On The Fault LineDR11      -0.10 dB   -12.95 dB      3:11 ?-Nothin' But A HeartacheDR11      -0.01 dB   -13.62 dB      4:59 ?-ChinatownDR11      -0.10 dB   -13.84 dB      4:17 ?-There's A LightDR12      -0.10 dB   -14.13 dB      3:27 ?-Need A LadyDR14      -0.80 dB   -18.09 dB      1:19 ?-Larry The Logger Two-Step--------------------------------------------------------------------------------Number of tracks:  10Official DR value: DR11Samplerate:        192000 HzChannels:          2Bits per sample:   24Bitrate:           5194 kbpsCodec:             FLAC================================================================================

Состав

Patrick Simmons - guitar, vocals
Jeff Baxter - guitar, steel guitar
Michael McDonald - keyboards, vocals
Tiran Porter - bass, vocals
Keith Knudsen - drums, vocals
John Hartman - drumsAdditional Players:
Bobby LaKind - congas, vocals
Dan Armstrong - electric sitar solo on "Need A Lady"
Norton Buffalo - harmonica on "There's A Light"
Victor Feldman - vibes on "Livin' On The Fault Line"
Rosemary Butler - backup vocals on "Little Darling (I Need You)", "You Belong To Me", and "There's A Light"
Maureen McDonald - backup vocals on "You're Made That Way"
Ted Templeman - percussion

Об альбоме (сборнике)

Livin' on the Fault Line is the seventh studio album by the American rock band The Doobie Brothers, released in 1977. It is one of the few Doobie Brothers albums which did not produce a hit (although "You Belong to Me" was a hit as recorded by co-author Carly Simon). Still, the album received modest critical acclaim. Tom Johnston (guitar, vocals) left the band early in the sessions. He is listed as part of the band (appearing in the inside group photo) but appears on little or none of the actual album. Much of this consistently mellow album has a jazz tinge, and the influences of R&B are palpable throughout. The track "Little Darling (I Need You)" is a remake of the Marvin Gaye 1966 hit.

Для скачки контента: [Установить программу-клиент] и кликнуть по - Скачать

[asmlocator.ru].t398731.torrent 
Торрент: Зарегистрирован [ 2017-10-05 06:55 ] · 1C090B0E4A4BAB1C539C73E9660350881B034ABE

Скачать .torrent

Скачать

14 KB

Статус: проверено
Скачан: 0 раз
Размер: 1,33 GB
terms.php
[Профиль] [ЛС]
Показать сообщения:    
Ответить на тему

Текущее время: 19-Окт 07:10

Часовой пояс: UTC ± 0



Вы не можете начинать темы
Вы не можете отвечать на сообщения
Вы не можете редактировать свои сообщения
Вы не можете удалять свои сообщения
Вы не можете голосовать в опросах
Вы не можете прикреплять файлы к сообщениям
Вы можете скачивать файлы