[TR24][OF] Plaza Francia - A New Tango Song Book - 2014 (Tango, Downtempo, World Music)

Ответить на тему
Статистика раздачи
Размер:  467 MB   |    Зарегистрирован:  2 месяца 13 дней   |    Скачан:  0 раз

Полного источника не было: 5 дней

 
   
 
 
Автор Сообщение

star21 ®

Пол: Не указан

Стаж: 2 года 1 месяц

Сообщений: 354226

Создавать темы 29-Сен-2017 00:06

[Цитировать]

PLAZA FRANCIAa new tango song book Жанр: Tango, Downtempo, World Music
Год издания: 2014
Издатель (лейбл): Because Music
Страна исполнителя: International / France
Продолжительность: 00:53:04
Наличие сканов: Front, Digital Booklet
01. La mano Encima (3:59)
02. Secreto (3:35)
03. Timidez (3:41)
04. La misión (3:34)
05. Invisible (4:20)
06. Memoria del placer (3:38)
07. Cada vez (3:57)
08. La que se fue (3:32)
09. Cenizas (4:26)
10. Mi calle (4:05)
11. Vueltas en el aire (3:19)
12. El Avión (3:35)
13. No hay perdón (3:45)
14. El vaivén del corazón (3:38)Состав:Catherine Ringer (Les Rita Mitsouko)
Eduardo Makaroff, Christoph H. Müller (Gotan Project)Контейнер: FLAC (*.flac)
Тип рипа: tracksРазрядность: 24bits / 96kHz
Количество каналов: 2.0
Отчёты

Динамический диапазон

foobar2000 1.2.2 / Замер динамического диапазона (DR) 1.1.1Дата отчёта: 2014-11-16 21:23:11--------------------------------------------------------------------------------Анализ:   Plaza Francia / A New Tango Song Book--------------------------------------------------------------------------------DR         Пики          RMS        Продолжительность трека--------------------------------------------------------------------------------DR9       -0.20 дБ   -11.78 дБ      3:59 ?-La mano EncimaDR8       -0.27 дБ   -10.05 дБ      3:35 ?-SecretoDR9       -0.20 дБ   -12.25 дБ      3:41 ?-TimidezDR8       -0.15 дБ   -10.14 дБ      3:34 ?-La misiónDR9       -0.28 дБ   -11.53 дБ      4:20 ?-InvisibleDR8       -0.14 дБ   -10.54 дБ      3:38 ?-Memoria del placerDR8       -0.14 дБ   -10.73 дБ      3:57 ?-Cada vezDR9       -0.02 дБ   -11.33 дБ      3:32 ?-La que se fueDR8       -0.29 дБ   -11.69 дБ      4:26 ?-CenizasDR8       -0.03 дБ   -11.37 дБ      4:05 ?-Mi calleDR8       -0.40 дБ   -10.63 дБ      3:19 ?-Vueltas en el aireDR10      -0.11 дБ   -12.07 дБ      3:35 ?-El AviónDR8       -0.21 дБ   -10.84 дБ      3:45 ?-No hay perdónDR9       -0.06 дБ   -10.55 дБ      3:38 ?-El vaivén del corazón--------------------------------------------------------------------------------Количество треков: 14Реальные значения DR: DR8Частота:  96000 ГцКаналов:  2Разрядность:   24Битрейт:  1291 кбит/сКодек:   FLAC================================================================================

Скриншот спектра частот

Доп. информация

При скачивании, если необходимо, переименуйте папку, в которой будет находиться альбомБольшая просьба к скачавшим поддерживать раздачу! Помогайте другим, ведь вам тоже может понадобиться помощь!Не забываем говорить "Спасибо"!Комментарии приветствуются!

Для скачки контента: [Установить программу-клиент] и кликнуть по - Скачать

[asmlocator.ru].t393714.torrent 
Торрент: Зарегистрирован [ 2017-09-29 00:05 ] · 9E87172771DA3B39C4CEC0D69CEBEC20BCF3DA52

Скачать .torrent

Скачать

20 KB

Статус: проверено
Скачан: 0 раз
Размер: 467 MB
terms.php
[Профиль] [ЛС]
Показать сообщения:    
Ответить на тему

Текущее время: 12-Дек 18:04

Часовой пояс: UTC ± 0



Вы не можете начинать темы
Вы не можете отвечать на сообщения
Вы не можете редактировать свои сообщения
Вы не можете удалять свои сообщения
Вы не можете голосовать в опросах
Вы не можете прикреплять файлы к сообщениям
Вы можете скачивать файлы