Claudio Capeo - Claudio Capeo - Musique Acoustic от 07.10.2016 - TV5MONDE (Филипп Сомме / Philippe Sommet) [2016, Variete francaise, Chanson francaise, Live, DVB]

Ответить на тему
Статистика раздачи
Размер:  620 MB   |    Зарегистрирован:  2 месяца 14 дней   |    Скачан:  0 раз

Полного источника не было: Никогда

 
   
 
 
Автор Сообщение

star21 ®

Пол: Не указан

Стаж: 2 года 1 месяц

Сообщений: 354226

Создавать темы 28-Сен-2017 14:26

[Цитировать]

Claudio Capéo - Claudio Capéo
Musique Acoustic от 07.10.2016 - TV5MONDE Страна: Франция
Жанр: Variete francaise, Chanson francaise, Live
Продолжительность: 00:26:57
Год выпуска: 2016 г.
Перевод: Субтитры (перевод М.Кузиной, éclair Media)
Субтитры: русские, английские, немецкие, французские, нидерландские, румынскиеРежиссер: Филипп Сомме / Philippe SommetОписание: Музыкальная передача Musique Acoustic канала французского телевидения TV5MONDE представляет преимущественно французских же талантливых молодых исполнителей, чье живое выступление в студии без зрителей может состоять из одной или нескольких песен, иногда передача бывает полностью посвящена одному исполнителю, презентующему новый альбом. Musique Acoustic выходит в эфир раз в 1-2 недели. Ведущим передачи c 2006 года является ее создатель - популярный радио – и телеведущий - Sébastien Folin, получивший известность в 2005 году серией из 20 коротких программ для TF1 "Любовь в 20 лет".Сегодня в студии французский певец и аккордеонист Claudio Capéo представляет свой третий альбом Claudio Capéo (2016).Треклист:
01. Ça va ça va
02. Un homme debout
03. Ambulance
04. Riche
05. Chez LauretteПередачи Musique AcousticИсточник: Hot Bird (13.0°E) TV5MONDE Europe DVB-SКачество: DVB
Контейнер: MKV
Видео кодек: MPEG2
Аудио кодек: MP2
Видео: MPEG Video 2, 720x576@1024x576 (16:9), 25 fps, ~2961 kbps avg, ~0.286 bit/pixel
Аудио: 48 kHz, MPEG Audio 2, 2 ch, 192.00 kbps avg
Формат субтитров: prerendered (IDX+SUB)

MediaInfo

GeneralUnique ID                                : 232487182542360554776920904599516526528 (0xAEE767145CC55D998620BECEEB94B7C0)Complete name                            : [apreder]TV5MONDE_Musique_Aqoustic_Claudio_Capeo_Claudio_Capeo(07.10.2016)DVB.mkvFormat                                   : MatroskaFormat version                           : Version 2File size                                : 620 MiBDuration                                 : 26 min 57 sOverall bit rate mode                    : VariableOverall bit rate                         : 3 217 kb/sMovie name                               : AcousticReleased date                            : 2016-10-07Encoded date                             : UTC 2016-10-18 14:19:51Writing application                      : mkvmerge v9.5.0 ('Quiet Fire') 64bitWriting library                          : libebml v1.3.4 + libmatroska v1.4.5Cover                                    : YesAttachments                              : cover.jpg / small_cover.jpgDIRECTOR                                 : Philippe SommetGENRE                                    : MusicKEYWORDS                                 : rutracker.orgLAW_RATING                               : 12+SUMMARY                                  : Claudio Capeo - Claudio CapeoVideoID                                       : 1Format                                   : MPEG VideoFormat version                           : Version 2Format profile                           : Main@MainFormat settings, BVOP                    : YesFormat settings, Matrix                  : CustomFormat settings, GOP                     : VariableFormat settings, picture structure       : FrameCodec ID                                 : V_MPEG2Codec ID/Info                            : MPEG 1 or 2 VideoDuration                                 : 26 min 57 sBit rate mode                            : VariableBit rate                                 : 2 961 kb/sWidth                                    : 720 pixelsHeight                                   : 576 pixelsDisplay aspect ratio                     : 16:9Frame rate mode                          : ConstantFrame rate                               : 25.000 FPSStandard                                 : PALColor space                              : YUVChroma subsampling                       : 4:2:0Bit depth                                : 8 bitsScan type                                : InterlacedScan order                               : Top Field FirstCompression mode                         : LossyBits/(Pixel*Frame)                       : 0.286Time code of first frame                 : 00:00:00:00Time code source                         : Group of pictures headerGOP, Open/Closed                         : OpenGOP, Open/Closed of first frame          : ClosedStream size                              : 571 MiB (92%)Default                                  : YesForced                                   : NoAudioID                                       : 2Format                                   : MPEG AudioFormat version                           : Version 1Format profile                           : Layer 2Mode                                     : Joint stereoMode extension                           : Intensity Stereo + MS StereoCodec ID                                 : A_MPEG/L2Codec ID/Hint                            : MP2Duration                                 : 26 min 57 sBit rate mode                            : ConstantBit rate                                 : 192 kb/sChannel(s)                               : 2 channelsSampling rate                            : 48.0 kHzCompression mode                         : LossyStream size                              : 37.0 MiB (6%)Language                                 : FrenchDefault                                  : YesForced                                   : NoText #1ID                                       : 3Format                                   : VobSubCodec ID                                 : S_VOBSUBCodec ID/Info                            : Picture based subtitle format used on DVDsLanguage                                 : RussianDefault                                  : NoForced                                   : NoText #2ID                                       : 4Format                                   : UTF-8Codec ID                                 : S_TEXT/UTF8Codec ID/Info                            : UTF-8 Plain TextLanguage                                 : EnglishDefault                                  : NoForced                                   : NoText #3ID                                       : 5Format                                   : UTF-8Codec ID                                 : S_TEXT/UTF8Codec ID/Info                            : UTF-8 Plain TextLanguage                                 : FrenchDefault                                  : NoForced                                   : NoText #4ID                                       : 6Format                                   : VobSubCodec ID                                 : S_VOBSUBCodec ID/Info                            : Picture based subtitle format used on DVDsLanguage                                 : GermanDefault                                  : NoForced                                   : NoText #5ID                                       : 7Format                                   : VobSubCodec ID                                 : S_VOBSUBCodec ID/Info                            : Picture based subtitle format used on DVDsLanguage                                 : DutchDefault                                  : NoForced                                   : NoText #6ID                                       : 8Format                                   : VobSubCodec ID                                 : S_VOBSUBCodec ID/Info                            : Picture based subtitle format used on DVDsLanguage                                 : RomanianDefault                                  : NoForced                                   : No

Скриншоты

Резервные скриншоты

[3'313]

Для скачки контента: [Установить программу-клиент] и кликнуть по - Скачать

[asmlocator.ru].t393350.torrent 
Торрент: Зарегистрирован [ 2017-09-28 14:25 ] · 4BAAD54947523DDB2CEDD5844467BA6A83751AD5

Скачать .torrent

Скачать

7 KB

Статус: проверено
Скачан: 0 раз
Размер: 620 MB
terms.php
[Профиль] [ЛС]
Показать сообщения:    
Ответить на тему

Текущее время: 12-Дек 18:01

Часовой пояс: UTC ± 0



Вы не можете начинать темы
Вы не можете отвечать на сообщения
Вы не можете редактировать свои сообщения
Вы не можете удалять свои сообщения
Вы не можете голосовать в опросах
Вы не можете прикреплять файлы к сообщениям
Вы можете скачивать файлы