(Italo-Disco) VA - Italo Disco Mix vol.2 (2 CD) - 1999, APE (image+.cue), lossless

Ответить на тему
Статистика раздачи
Размер:  1022 MB   |    Зарегистрирован:  20 дней   |    Скачан:  0 раз

Полного источника не было: Никогда

 
   
 
 
Автор Сообщение

star21 ®

Пол: Не указан

Стаж: 1 год 11 месяцев

Сообщений: 355767

Создавать темы 28-Сен-2017 14:26

[Цитировать]

Various Artists - Italo Disco Mix vol.2 (2 CD) Жанр: Italo-Disco
Год выпуска диска: 1999 (17 Feb)
Производитель диска: Germany (ZYX 81187-2)
Аудио кодек: APE
Тип рипа: image+.cue
Битрейт аудио: lossless
Продолжительность: 74:02 + 72:20
Трэклист:

CD1

1-01 Martinelli Cenerentola (3:57)
1-02 Scotch - Delirio Mind (4:36)
1-03 Gazebo - Lunatic (4:10)
1-04 Grant Miller - Colder Than Ice (3:55)
1-05 Italian Boys - Forever Lovers (3:55)
1-06 Savage - Only You (3:39)
1-07 Corey Hart - Sunglasses At Night (3:54)
1-08 Carrara - Disco King (3:35)
1-09 Tullio De Piscopo - Stop Bajon (4:26)
1-10 Ivan (4) - Fotonovela (4:32)
1-11 Laserdance - Humanoid Invasion (3:20)
1-12 Sandy Marton - People From Ibiza (3:48)
1-13 Max Coveri - One More Time (3:08)
1-14 Patrick Hernandez & Belen Thomas - Born To Be Alive (3:37)
1-15 P. Lion - Dream (4:02)
1-16 Blind Date - Your Heart Keeps Burning (3:58)
1-17 Spagna* - Dance Dance Dance (4:17)
1-18 Fancy - Fools Cry (3:54)

CD2

2-01 P4F Propaganda
2-02 Alisha - Baby Talk
2-03 Miko Mission - The World Is You
2-04 Koto - Jabdah
2-05 S-50 - Input
2-06 Alan Ross - Valentino Mon Amour
2-07 Hot Cold - I Can Hear Your Voice
2-08 Fred Ventura - The Years
2-09 Max-Him - No Escape
2-10 Doctor's Cat - Watch Out
2-11 Albert One - Hopes & Dreams
2-12 Paul Sharada - Boxers
2-13 Cyber People - Void Vision
2-14 Cliff Turner - Moonlight Affair
2-15 Linda Jo Rizzo - You're My First, You're My Last
2-16 Fun Fun - Baila Bolero
2-17 Ken Laszlo - Tonight
2-18 Joe Yellow - Easy Lovers
2-19 49ers - Touch Me
2-20 Denise* & Baby's Gang - Disco Maniac
2-21 Sabrina - Sexy Girl
2-22 Patty Ryan - Stay With Me Tonight
2-23 Lian Ross - Fantasy '98
2-24 Den Harrow - Future Brain '98
2-25 Radiorama - ABCD
2-26 Mozzart - Money
2-27 Mike Mareen - Love Spy
2-28 Den Harrow - To Meet Me
2-29 Max-Him - Japanese Girl
2-30 Mike Mareen - Dancing In The Dark
Доп. информация: CD 2 is a non-stop megamixВнимание !!!
Торрент файл перезалит
- диск скопирован заново на другом приводе
- добавлены обложки

Отчёт EAC для CD 1

Отчёт EAC об извлечении, выполненном 24. января 2016, 14:13Various / Italo Disco Mix Vol.2 CD1Дисковод: PLEXTOR DVDR   PX-708A   Adapter: 4  ID: 1Режим чтения                 : ДостоверностьИспользование точного потока : ДаОтключение кэша аудио        : ДаИспользование указателей C2  : НетКоррекция смещения при чтении                     : 30Способность читать области Lead-in и Lead-out     : НетЗаполнение пропущенных сэмплов тишиной            : ДаУдаление блоков с тишиной в начале и конце        : НетПри вычислениях CRC использовались нулевые сэмплы : ДаИнтерфейс                                         : Встроенный Win32-интерфейс для Win NT/2000Выходной формат : Внутренние WAV-операцииФормат сэмплов  : 44.100 Гц; 16 бит; стереоTOC извлечённого CD     Трек |   Старт  | Длительность | Начальный сектор | Конечный сектор    ---------------------------------------------------------------------       1  |  0:00.00 |    3:58.28   |           0      |      17877       2  |  3:58.28 |    4:12.27   |       17878      |      36804       3  |  8:10.55 |    4:09.48   |       36805      |      55527       4  | 12:20.28 |    3:55.14   |       55528      |      73166       5  | 16:15.42 |    3:55.72   |       73167      |      90863       6  | 20:11.39 |    3:42.11   |       90864      |     107524       7  | 23:53.50 |    5:18.51   |      107525      |     131425       8  | 29:12.26 |    3:34.66   |      131426      |     147541       9  | 32:47.17 |    4:24.46   |      147542      |     167387      10  | 37:11.63 |    4:32.49   |      167388      |     187836      11  | 41:44.37 |    3:22.16   |      187837      |     203002      12  | 45:06.53 |    3:45.06   |      203003      |     219883      13  | 48:51.59 |    3:10.67   |      219884      |     234200      14  | 52:02.51 |    3:41.27   |      234201      |     250802      15  | 55:44.03 |    4:05.01   |      250803      |     269178      16  | 59:49.04 |    4:00.63   |      269179      |     287241      17  | 63:49.67 |    4:18.62   |      287242      |     306653      18  | 68:08.54 |    3:54.11   |      306654      |     324214Характеристики диапазона извлечения и сообщения об ошибкахВыбранный диапазон     Имя файла C:\Downloads\Various Artists - Italo Disco Mix vol.2 '1999\Various - Italo Disco Mix Vol.2 CD1.wav     Пиковый уровень 100.0 %     Скорость извлечения 2.4 X     Качество диапазона 100.0 %     CRC копии 48A7B385     Копирование... OKОшибок не произошлоКонец отчёта==== Контрольная сумма отчёта C0AE266D682C68A1690EEB0C243A8AFD1315B5F89B81BCDBC0B02F92C462CFB6 ====

Отчёт EAC для CD 2

Отчёт EAC об извлечении, выполненном 24. января 2016, 14:52Various Artists / Italo Disco Mix Vol. 2, CD02Дисковод: PLEXTOR DVDR   PX-708A   Adapter: 4  ID: 1Режим чтения                 : ДостоверностьИспользование точного потока : ДаОтключение кэша аудио        : ДаИспользование указателей C2  : НетКоррекция смещения при чтении                     : 30Способность читать области Lead-in и Lead-out     : НетЗаполнение пропущенных сэмплов тишиной            : ДаУдаление блоков с тишиной в начале и конце        : НетПри вычислениях CRC использовались нулевые сэмплы : ДаИнтерфейс                                         : Встроенный Win32-интерфейс для Win NT/2000Выходной формат : Внутренние WAV-операцииФормат сэмплов  : 44.100 Гц; 16 бит; стереоTOC извлечённого CD     Трек |   Старт  | Длительность | Начальный сектор | Конечный сектор    ---------------------------------------------------------------------       1  |  0:00.00 |    1:44.16   |           0      |       7815       2  |  1:44.16 |    1:56.42   |        7816      |      16557       3  |  3:40.58 |    2:03.62   |       16558      |      25844       4  |  5:44.45 |    1:30.55   |       25845      |      32649       5  |  7:15.25 |    1:02.72   |       32650      |      37371       6  |  8:18.22 |    3:01.46   |       37372      |      50992       7  | 11:19.68 |    2:27.44   |       50993      |      62061       8  | 13:47.37 |    2:55.65   |       62062      |      75251       9  | 16:43.27 |    1:59.08   |       75252      |      84184      10  | 18:42.35 |    2:45.21   |       84185      |      96580      11  | 21:27.56 |    2:38.59   |       96581      |     108489      12  | 24:06.40 |    2:34.54   |      108490      |     120093      13  | 26:41.19 |    1:13.21   |      120094      |     125589      14  | 27:54.40 |    2:12.13   |      125590      |     135502      15  | 30:06.53 |    2:31.26   |      135503      |     146853      16  | 32:38.04 |    2:01.67   |      146854      |     155995      17  | 34:39.71 |    2:35.74   |      155996      |     167694      18  | 37:15.70 |    1:50.63   |      167695      |     176007      19  | 39:06.58 |    2:35.34   |      176008      |     187666      20  | 41:42.17 |    2:37.28   |      187667      |     199469      21  | 44:19.45 |    2:03.70   |      199470      |     208764      22  | 46:23.40 |    2:34.31   |      208765      |     220345      23  | 48:57.71 |    3:21.01   |      220346      |     235421      24  | 52:18.72 |    3:34.10   |      235422      |     251481      25  | 55:53.07 |    2:36.74   |      251482      |     263255      26  | 58:30.06 |    2:36.67   |      263256      |     275022      27  | 61:06.73 |    2:06.12   |      275023      |     284484      28  | 63:13.10 |    2:34.61   |      284485      |     296095      29  | 65:47.71 |    2:46.04   |      296096      |     308549      30  | 68:34.00 |    3:46.24   |      308550      |     325523Характеристики диапазона извлечения и сообщения об ошибкахВыбранный диапазон     Имя файла C:\Downloads\Various Artists - Italo Disco Mix vol.2 '1999\Various Artists - Italo Disco Mix Vol. 2, CD02.wav     Пиковый уровень 100.0 %     Скорость извлечения 2.4 X     Качество диапазона 100.0 %     CRC копии 79EFD608     Копирование... OKОшибок не произошлоКонец отчёта==== Контрольная сумма отчёта 39CCBB2C8B0E28B0B85C5E6C14A1027A067E17FC71DB7059EAB473CA0406E8E3 ====

Для скачки контента: [Установить программу-клиент] и кликнуть по - Скачать

[asmlocator.ru].t393345.torrent 
Торрент: Зарегистрирован [ 2017-09-28 14:25 ] · 7DB639462EC27784116A8C8BB49EA6C51A9D0132

Скачать .torrent

Скачать

21 KB

Статус: проверено
Скачан: 0 раз
Размер: 1022 MB
terms.php
[Профиль] [ЛС]
Показать сообщения:    
Ответить на тему

Текущее время: 19-Окт 07:18

Часовой пояс: UTC ± 0



Вы не можете начинать темы
Вы не можете отвечать на сообщения
Вы не можете редактировать свои сообщения
Вы не можете удалять свои сообщения
Вы не можете голосовать в опросах
Вы не можете прикреплять файлы к сообщениям
Вы можете скачивать файлы