(Retro) VA - Новогодний подарок (Оригинальные записи прошлых лет) - 2005, FLAC (image+.cue), lossless

Ответить на тему
Статистика раздачи
Размер:  330 MB   |    Зарегистрирован:  2 месяца 16 дней   |    Скачан:  0 раз
Сидов:  1  [  0 KB/s  ]   Подробная статистика пиров
 
   
 
 
Автор Сообщение

star21 ®

Пол: Не указан

Стаж: 2 года 1 месяц

Сообщений: 354226

Создавать темы 26-Сен-2017 01:10

[Цитировать]

Various Artists - Новогодний подарок. Оригинальные записи прошлых лет Жанр: Retro
Страна-производитель диска: Россия
Год выпуска диска: 2005
Издатель (лейбл): АРК-Систем Рекордз
Номер по каталогу: ARK CD 050
Аудио кодек: FLAC
Тип рипа: image+.cue
Битрейт аудио: lossless
Продолжительность: 54:47
Источник (релизер): собственный диск
Наличие сканов в содержимом раздачи: да
Трэклист:
01. Л. Утёсов "Всюду вас ожидают друзья" 2.27
02. Л. Гурченко "Пять минут" 2.30
03. М.Кристалинская "Новогодняя песня" 2.05
04. Н. Бродская "Русская зима" 3.01
05. О. Анофриев и вокальный квартет "Улыбка" "В ночь под Новый год" 2.42
06. Г. Отс "Зимняя сказка" 3.03
07. О. Рождественская и ансамбль "Добры молодцы" "Снежинка" 2.38
08. А. Фрейндлих "Зимняя песенка" 2.53
09. А. Абдулов "С первого по тринадцатое" 3.25
10. М. Кристалинская "Зимняя песня" 2.00
11. А. Вески "Новый год" 3.00
12. Г. Великанова "В новогоднюю ночь" 1.07
13. И. Верник, С. Шустицкий, Е. Киселёва "Новый год любви" 3.38
14. А. Хоралов и А. Ротару "Новогодние игрушки" 4.03
15. О. Анофриев "Ой, ты вьюга" 3.26
16. М. Кристалинская "Этот Новый год" 2.53
17. К. Кельми "Дед Мороз" 3.22
18. Г. Гладков и Д. Оганезова "Новогодняя песенка" 2.09
19. М. Боярский "Новый год" 3.24
Доп. информация: Рип сделан программой EAC V0.99. Треки №01 и №13 опознаются как mpeg.

Back:

Отчёт EAC

Exact Audio Copy V0.99 prebeta 5 from 4. May 2009Отчёт EAC об извлечении, выполненном 6. декабря 2009, 13:19Various Artists / Новогодний подарокДисковод: PIONEER DVD-RW  DVR-111D   Adapter: 1  ID: 0Режим чтения                 : ДостоверностьИспользование точного потока : ДаОтключение кэша аудио        : ДаИспользование указателей C2  : НетКоррекция смещения при чтении                     : 48Способность читать области Lead-in и Lead-out     : НетЗаполнение пропущенных сэмплов тишиной            : ДаУдаление блоков с тишиной в начале и конце        : НетПри вычислениях CRC использовались нулевые сэмплы : ДаИнтерфейс                                         : Установленный внешний ASPI-интерфейсВыходной формат : Внутренние WAV-операцииФормат сэмплов  : 44.100 Гц; 16 бит; стереоTOC извлечённого CD     Трек |   Старт  | Длительность | Начальный сектор | Конечный сектор    ---------------------------------------------------------------------       1  |  0:00.00 |    2:31.05   |           0      |      11329       2  |  2:31.05 |    3:31.40   |       11330      |      27194       3  |  6:02.45 |    2:09.48   |       27195      |      36917       4  |  8:12.18 |    3:04.47   |       36918      |      50764       5  | 11:16.65 |    2:44.07   |       50765      |      63071       6  | 14:00.72 |    3:05.15   |       63072      |      76961       7  | 17:06.12 |    2:42.26   |       76962      |      89137       8  | 19:48.38 |    2:57.11   |       89138      |     102423       9  | 22:45.49 |    3:26.71   |      102424      |     117944      10  | 26:12.45 |    2:03.35   |      117945      |     127204      11  | 28:16.05 |    3:02.56   |      127205      |     140910      12  | 31:18.61 |    1:09.19   |      140911      |     146104      13  | 32:28.05 |    2:56.61   |      146105      |     159365      14  | 35:24.66 |    3:48.29   |      159366      |     176494      15  | 39:13.20 |    3:29.62   |      176495      |     192231      16  | 42:43.07 |    2:55.62   |      192232      |     205418      17  | 45:38.69 |    3:24.04   |      205419      |     220722      18  | 49:02.73 |    2:18.56   |      220723      |     231128      19  | 51:21.54 |    3:26.10   |      231129      |     246588Характеристики диапазона извлечения и сообщения об ошибкахВыбранный диапазон     Имя файла D:\Various Artists - Новогодний подарок.wav     Пиковый уровень 100.0 %     Качество диапазона 100.0 %     CRC теста 89DA0286     CRC копии 89DA0286     Копирование... OKОшибок не произошлоAccurateRip: сводкаТрек  1  нет в базе данныхТрек  2  нет в базе данныхТрек  3  нет в базе данныхТрек  4  нет в базе данныхТрек  5  нет в базе данныхТрек  6  нет в базе данныхТрек  7  нет в базе данныхТрек  8  нет в базе данныхТрек  9  нет в базе данныхТрек 10  нет в базе данныхТрек 11  нет в базе данныхТрек 12  нет в базе данныхТрек 13  нет в базе данныхТрек 14  нет в базе данныхТрек 15  нет в базе данныхТрек 16  нет в базе данныхТрек 17  нет в базе данныхТрек 18  нет в базе данныхТрек 19  нет в базе данныхНи одного трека нет в базе AccurateRipКонец отчёта

TAU


Для скачки контента: [Установить программу-клиент] и кликнуть по - Скачать

[asmlocator.ru].t390980.torrent 
Торрент: Зарегистрирован [ 2017-09-26 01:10 ] · 9C838F6001AC0EABF838ECBCF657B0D604899CA0

Скачать .torrent

Скачать

14 KB

Статус: проверено
Скачан: 0 раз
Размер: 330 MB
terms.php
[Профиль] [ЛС]
Показать сообщения:    
Ответить на тему

Текущее время: 12-Дек 18:03

Часовой пояс: UTC ± 0



Вы не можете начинать темы
Вы не можете отвечать на сообщения
Вы не можете редактировать свои сообщения
Вы не можете удалять свои сообщения
Вы не можете голосовать в опросах
Вы не можете прикреплять файлы к сообщениям
Вы можете скачивать файлы