Григорий Лепс - Полный вперед! [2016, Chanson, Pop, BD=>DVD9]

Ответить на тему
Статистика раздачи
Размер:  7,87 GB   |    Зарегистрирован:  2 месяца 18 дней   |    Скачан:  0 раз

Полного источника не было: Никогда

 
   
 
 
Автор Сообщение

star21 ®

Пол: Не указан

Стаж: 2 года 1 месяц

Сообщений: 354226

Создавать темы 24-Сен-2017 15:11

[Цитировать]

Григорий Лепс - Полный вперед! Страна: Россия
Жанр: Chanson, Pop
Продолжительность: 02:26:28
Год выпуска: 2016Описание:
«Полный вперёд!» — одиннадцатый студийный альбом Григория Лепса. Премьера альбома состоялась на юбилейных концертах певца 4, 5, 7 и 8 декабря 2012 года в концертном зале «Crocus City Hall». Представленный DVD, содержит полную видеоверсию юбилейного концерта Григория Лепса, состоявшегося 5 декабря 2012 года в концертном зале «Crocus City Hall». На концерте были исполнены 10 песен из нового альбома «Полный вперёд!», а также лучшие песни из предыдущих альбомов Григория Лепса. Концерт организован Продюсерским центром Григория Лепса. Съёмка проводилась по заказу ОАО «Первый канал». 5 ноября 2013 года концерт был издан на Blu-ray.
Музыканты:
  • Григорий Лепс — вокал
  • Артур Осипов — ударные
  • Геннадий Пучков — клавишные
  • Денис Катасонов — гитара
  • Алексей Лебедев — бас-гитара
  • Павел Черных — акустическая гитара
  • Минигали Давлетбаев — саксофон
  • Яна Гук — бэк-вокал
  • Юля Терещенко — бэк-вокал
  • Татьяна Головлёва — бэк-вокал
    Треклист:
    01. «Безопасность» (музыка — M. Hedstrom, слова — E. Palmqwist, русский текст — Г. Лепс)
    02. «Берега» (музыка и слова — Е. Поздняков)
    03. «Люди» (музыка — Г. Лепс, слова — А. Трогрлич)
    04. «Он был старше её» (музыка и слова — А. Макаревич)
    05. «Где-то за тучами» (музыка — А. Добронравов, слова — С. Каргашин)
    06. «Ну и что» (музыка и слова — Г. Богданов)
    07. «Танго разбитых сердец» (музыка — Е. Кобылянский, слова — К. Кавалерян)
    08. «Небо» (музыка и слова — G. Berryman, J. Buckland, W. Champion, C. Martin, русский текст — К. Кавалерян)
    09. «Падают листья» (музыка — Д. Соболев, слова — О. Колесниченко)
    10. «Что может человек» (музыка — Г. Лепс, слова — К. Арсенев)
    11. «Я слушал дождь» (музыка — Е. Кобылянский, слова — А. Долженков)
    12. «Парус» (музыка и слова — В. Высоцкий)
    13. «Свои» (музыка — И. Матвиенко, слова — А.Олейник)
    14. «Ранняя тишина» (музыка и слова — Л. Шапиро)
    15. «Я тебя не люблю» (музыка — В. Дробыш, слова — К. Арсенев)
    16. «Уходи красиво» (музыка и слова — Bryn Cristopher, Jaz Rogers, русский текст — К. Арсенев)
    17. «Я счастливый» (музыка — Д. Дубинский, слова — Ю. Паренко)
    18. «Рюмка водки на столе» (музыка и слова — Е. Григорьев)
    19. «Обернитесь» (музыка и слова — К. Меладзе)
    20. «Самый лучший день» (музыка и слова — Л. Шапиро)
    21. «Запой» (музыка — M. Hedstrom, слова — E. Palmqwist, русский текст — Г. Лепс)
    22. «Водопадом» (музыка и слова — П. Евлахов)
    23. «Лондон» (музыка и слова — Г. Лепс, Т. Юнусов)
    24. «Се ля ви» (музыка и слова — К. Меладзе)
    25. «Она» (музыка — А.Мисин, слова — К. Кавалерян)Доп. информация: Исходник Blu-ray (спасибо BОBЁR ).
    Отдельная благодарность , за помощь и мозгоклюйство науку (заставил дважды перекодировать и трижды переделать авторинг), при создании данного релиза.Меню : статическое, озвученное, создано на основе исходного.
    Полученный результат проверен на работоспособность на софтовом плеере Media Player Classic Home Cinema, записан на болванку с помощью ImgBurn и проверен на бытовом плеере.

Программы, использованные при создании релиза

Демуксинг
eac3to
HdBrStreamExtractor
Обработка видео
AviSynth
Rhozet Carbon Coder
DGAVCIndex
Обработка аудио
Audacity
Sonic Foundry Soft Encode
Авторинг и проверка
MPEG Video Wizard DVD
MuxMan
DVD-lab PRO 2
DvdReMakePro

Скрипт

LoadPlugin("C:\Program Files (x86)\AviSynth 2.5\plugins\DGAVCDecode.dll")
AVCSource("D:\Demux\04\1_2_video.dga")
LoadPlugin("C:\Program Files (x86)\AviSynth 2.5\plugins\TDeint.dll")
TDeint(mode=1)
Lanczos4Resize(720,576)
AssumeTFF()
SeparateFields()
SelectEvery(4,0,3)
Weave()
LoadPlugin("C:\Program Files (x86)\AviSynth 2.5\plugins\AutoYUY2.dll")
AutoYUY2()
LoadPlugin("C:\Program Files (x86)\AviSynth 2.5\plugins\ColorMatrix.dll")
ColorMatrix(mode="Rec.709->Rec.601", inputFR=false, clamp=0)

Точка перехода

Сэмпл: СкачатьРазбивка на главы по трекам: есть
Качество : BD=>DVD9
Формат: DVD video
Видео кодек: MPEG2
Аудио кодек: АС3
Видео: PAL 16:9 (720x576) VBR, Auto Letterboxed ~7100 Kbps, 25 fps
Аудио: Russian (Dolby AC3, 6 ch) 448 kbps

DVDinfo+MI

Title: Григорий Лепс - Полный вперед!Size: 7.87 Gb ( 8 252 232,00 KBytes ) - DVD-9Enabled regions: 1, 2, 3, 4, 5, 6, 7, 8VTS_01 :  Play Length: 02:26:28  Video: PAL 16:9 (720x576) VBR, Auto Letterboxed  Audio:      Russian (Dolby AC3, 6 ch)* Menus Information *VIDEO_TS MenuVideo:      PAL 16:9 (720x576) VBR      Auto LetterboxedAudio:      Not specified (Dolby AC3, 2 ch)English Language Unit :      Title MenuVTS_01 MenuVideo:      PAL 16:9 (720x576) VBR      Auto LetterboxedAudio:      Not specified (Dolby AC3, 2 ch)English Language Unit :      Root Menu============================================================ОбщееПолное имя                               : C:\Григорий Лепс - Полный вперед!\VIDEO_TS\VIDEO_TS.BUPФормат                                   : DVD VideoПрофиль формата                          : MenuРазмер файла                             : 12,0 КбайтРежим общего битрейта                    : ПеременныйВидеоИдентификатор                            : 224 (0xE0)Формат                                   : MPEG VideoВерсия формата                           : Version 2Вид битрейта                             : ПеременныйШирина                                   : 720 пикселейВысота                                   : 576 пикселейСоотношение сторон                       : 16:9Частота кадров                           : 25,000 кадров/секСтандарт вещания                         : PALМетод сжатия                             : С потерямиАудиоФормат                                   : AC-3Формат/Информация                        : Audio Coding 3Каналы                                   : 2 каналаЧастота                                  : 48,0 КГцМетод сжатия                             : С потерямиТекстФормат                                   : RLEФормат/Информация                        : Run-length encodingБитовая глубина                          : 2 битОбщееПолное имя                               : C:\Григорий Лепс - Полный вперед!\VIDEO_TS\VIDEO_TS.IFOФормат                                   : DVD VideoПрофиль формата                          : MenuРазмер файла                             : 12,0 КбайтРежим общего битрейта                    : ПеременныйВидеоИдентификатор                            : 224 (0xE0)Формат                                   : MPEG VideoВерсия формата                           : Version 2Вид битрейта                             : ПеременныйШирина                                   : 720 пикселейВысота                                   : 576 пикселейСоотношение сторон                       : 16:9Частота кадров                           : 25,000 кадров/секСтандарт вещания                         : PALМетод сжатия                             : С потерямиАудиоФормат                                   : AC-3Формат/Информация                        : Audio Coding 3Каналы                                   : 2 каналаЧастота                                  : 48,0 КГцМетод сжатия                             : С потерямиТекстФормат                                   : RLEФормат/Информация                        : Run-length encodingБитовая глубина                          : 2 битОбщееПолное имя                               : C:\Григорий Лепс - Полный вперед!\VIDEO_TS\VIDEO_TS.VOBФормат                                   : MPEG-PSРазмер файла                             : 8,18 МбайтПродолжительность                        : 33 с.Режим общего битрейта                    : ПеременныйОбщий поток                              : 2077 Кбит/секВидеоИдентификатор                            : 224 (0xE0)Формат                                   : MPEG VideoВерсия формата                           : Version 2Профиль формата                          : Main@MainПараметр BVOP формата                    : ДаПараметр матрицы формата                 : По умолчаниюПараметр GOP формата                     : M=3, N=12Продолжительность                        : 33 с.Вид битрейта                             : ПеременныйБитрейт                                  : 1844 Кбит/секМаксимальный битрейт                     : 3593 Кбит/секШирина                                   : 720 пикселейВысота                                   : 576 пикселейСоотношение сторон                       : 16:9Частота кадров                           : 25,000 кадров/секСтандарт вещания                         : PALЦветовое пространство                    : YUVСубдискретизация насыщенности            : 4:2:0Битовая глубина                          : 8 битТип развёртки                            : ПрогрессивнаяМетод сжатия                             : С потерямиБит/(Пиксели*Кадры)                      : 0.178Временной код первого кадра              : 00:00:00:00Оригинал временного кода                 : Group of pictures headerGOP, открыто/закрыто                     : ЗакрытоРазмер потока                            : 7,26 Мбайт (89%)Основные цвета                           : BT.601 PALХарактеристики трансфера                 : BT.470 System B, BT.470 System GКоэффициенты матрицы                     : BT.601АудиоИдентификатор                            : 189 (0xBD)-128 (0x80)Формат                                   : AC-3Формат/Информация                        : Audio Coding 3Расширение режима                        : CM (complete main)Параметр Endianness формата              : BigРежим смешивания                         : DVD-VideoПродолжительность                        : 32 с.Вид битрейта                             : ПостоянныйБитрейт                                  : 192 Кбит/секКаналы                                   : 2 каналаРасположение каналов                     : Front: L RЧастота                                  : 48,0 КГцЧастота кадров                           : 31,250 кадров/сек (1536 spf)Метод сжатия                             : С потерямиРазмер потока                            : 770 Кбайт (9%)Текст #1Идентификатор                            : 189 (0xBD)-32 (0x20)Формат                                   : RLEФормат/Информация                        : Run-length encodingРежим смешивания                         : DVD-VideoТекст #2Идентификатор                            : 189 (0xBD)-34 (0x22)Формат                                   : RLEФормат/Информация                        : Run-length encodingРежим смешивания                         : DVD-VideoМенюОбщееПолное имя                               : C:\Григорий Лепс - Полный вперед!\VIDEO_TS\VTS_01_0.BUPФормат                                   : DVD VideoПрофиль формата                          : ProgramРазмер файла                             : 82,0 КбайтПродолжительность                        : 2 ч. 26 м.Режим общего битрейта                    : ПеременныйОбщий поток                              : 76 бит/секВидеоИдентификатор                            : 224 (0xE0)Формат                                   : MPEG VideoВерсия формата                           : Version 2Продолжительность                        : 2 ч. 26 м.Вид битрейта                             : ПеременныйШирина                                   : 720 пикселейВысота                                   : 576 пикселейСоотношение сторон                       : 16:9Частота кадров                           : 25,000 кадров/секСтандарт вещания                         : PALМетод сжатия                             : С потерямиАудиоИдентификатор                            : 128 (0x80)Формат                                   : AC-3Формат/Информация                        : Audio Coding 3Продолжительность                        : 2 ч. 26 м.Каналы                                   : 6 каналовЧастота                                  : 48,0 КГцМетод сжатия                             : С потерямиЯзык                                     : RussianМенюПродолжительность                        : 2 ч. 26 м.00:00:00.000                             : Chapter 100:00:51.000                             : Chapter 200:06:05.120                             : Chapter 300:10:12.640                             : Chapter 400:14:11.640                             : Chapter 500:19:45.000                             : Chapter 600:25:08.640                             : Chapter 700:30:28.920                             : Chapter 800:34:13.920                             : Chapter 900:38:50.000                             : Chapter 1000:42:38.040                             : Chapter 1100:54:54.040                             : Chapter 1201:00:56.160                             : Chapter 1301:04:01.200                             : Chapter 1401:11:44.720                             : Chapter 1501:15:57.880                             : Chapter 1601:19:43.040                             : Chapter 1701:26:54.720                             : Chapter 1801:31:51.200                             : Chapter 1901:40:20.720                             : Chapter 2001:46:37.680                             : Chapter 2101:54:39.640                             : Chapter 2201:59:42.960                             : Chapter 2302:09:02.720                             : Chapter 2402:15:36.120                             : Chapter 2502:19:40.120                             : Chapter 26List (Audio)                             : 0ОбщееПолное имя                               : C:\Григорий Лепс - Полный вперед!\VIDEO_TS\VTS_01_0.IFOФормат                                   : DVD VideoПрофиль формата                          : ProgramРазмер файла                             : 82,0 КбайтПродолжительность                        : 2 ч. 26 м.Режим общего битрейта                    : ПеременныйОбщий поток                              : 76 бит/секВидеоИдентификатор                            : 224 (0xE0)Формат                                   : MPEG VideoВерсия формата                           : Version 2Продолжительность                        : 2 ч. 26 м.Вид битрейта                             : ПеременныйШирина                                   : 720 пикселейВысота                                   : 576 пикселейСоотношение сторон                       : 16:9Частота кадров                           : 25,000 кадров/секСтандарт вещания                         : PALМетод сжатия                             : С потерямиАудиоИдентификатор                            : 128 (0x80)Формат                                   : AC-3Формат/Информация                        : Audio Coding 3Продолжительность                        : 2 ч. 26 м.Каналы                                   : 6 каналовЧастота                                  : 48,0 КГцМетод сжатия                             : С потерямиЯзык                                     : RussianМенюПродолжительность                        : 2 ч. 26 м.00:00:00.000                             : Chapter 100:00:51.000                             : Chapter 200:06:05.120                             : Chapter 300:10:12.640                             : Chapter 400:14:11.640                             : Chapter 500:19:45.000                             : Chapter 600:25:08.640                             : Chapter 700:30:28.920                             : Chapter 800:34:13.920                             : Chapter 900:38:50.000                             : Chapter 1000:42:38.040                             : Chapter 1100:54:54.040                             : Chapter 1201:00:56.160                             : Chapter 1301:04:01.200                             : Chapter 1401:11:44.720                             : Chapter 1501:15:57.880                             : Chapter 1601:19:43.040                             : Chapter 1701:26:54.720                             : Chapter 1801:31:51.200                             : Chapter 1901:40:20.720                             : Chapter 2001:46:37.680                             : Chapter 2101:54:39.640                             : Chapter 2201:59:42.960                             : Chapter 2302:09:02.720                             : Chapter 2402:15:36.120                             : Chapter 2502:19:40.120                             : Chapter 26List (Audio)                             : 0ОбщееПолное имя                               : C:\Григорий Лепс - Полный вперед!\VIDEO_TS\VTS_01_0.VOBФормат                                   : MPEG-PSРазмер файла                             : 7,33 МбайтПродолжительность                        : 1 м. 19 с.Режим общего битрейта                    : ПеременныйОбщий поток                              : 778 Кбит/секВидеоИдентификатор                            : 224 (0xE0)Формат                                   : MPEG VideoВерсия формата                           : Version 2Профиль формата                          : Main@MainПараметр BVOP формата                    : НетПараметр матрицы формата                 : По умолчаниюПродолжительность                        : 40 мс.Вид битрейта                             : ПеременныйБитрейт                                  : 570 Кбит/секМаксимальный битрейт                     : 9000 Кбит/секШирина                                   : 720 пикселейВысота                                   : 576 пикселейСоотношение сторон                       : 16:9Частота кадров                           : 25,000 кадров/секСтандарт вещания                         : PALЦветовое пространство                    : YUVСубдискретизация насыщенности            : 4:2:0Битовая глубина                          : 8 битТип развёртки                            : ПрогрессивнаяПорядок развёртки                        : Верхнее поле первоеМетод сжатия                             : С потерямиБит/(Пиксели*Кадры)                      : 0.055Размер потока                            : 2,78 Кбайт (0%)Основные цвета                           : BT.601 PALХарактеристики трансфера                 : BT.470 System B, BT.470 System GКоэффициенты матрицы                     : BT.601АудиоИдентификатор                            : 189 (0xBD)-128 (0x80)Формат                                   : AC-3Формат/Информация                        : Audio Coding 3Расширение режима                        : CM (complete main)Параметр Endianness формата              : BigРежим смешивания                         : DVD-VideoПродолжительность                        : 1 м. 19 с.Вид битрейта                             : ПостоянныйБитрейт                                  : 192 Кбит/секКаналы                                   : 2 каналаРасположение каналов                     : Front: L RЧастота                                  : 48,0 КГцЧастота кадров                           : 31,250 кадров/сек (1536 spf)Метод сжатия                             : С потерямиРазмер потока                            : 1,81 Мбайт (25%)Текст #1Идентификатор                            : 189 (0xBD)-32 (0x20)Формат                                   : RLEФормат/Информация                        : Run-length encodingРежим смешивания                         : DVD-VideoПродолжительность                        : 192 мс.Текст #2Идентификатор                            : 189 (0xBD)-34 (0x22)Формат                                   : RLEФормат/Информация                        : Run-length encodingРежим смешивания                         : DVD-VideoПродолжительность                        : 192 мс.МенюОбщееПолное имя                               : C:\Григорий Лепс - Полный вперед!\VIDEO_TS\VTS_01_1.VOBФормат                                   : MPEG-PSРазмер файла                             : 1024 МбайтПродолжительность                        : 18 м.Режим общего битрейта                    : ПеременныйОбщий поток                              : 7652 Кбит/секВидеоИдентификатор                            : 224 (0xE0)Формат                                   : MPEG VideoВерсия формата                           : Version 2Профиль формата                          : Main@MainПараметр BVOP формата                    : ДаПараметр матрицы формата                 : ВыборочнаяПараметр GOP формата                     : M=3, N=15Структура изображения                    : FrameПродолжительность                        : 18 м.Вид битрейта                             : ПеременныйБитрейт                                  : 7052 Кбит/секМаксимальный битрейт                     : 8000 Кбит/секШирина                                   : 720 пикселейВысота                                   : 576 пикселейСоотношение сторон                       : 16:9Частота кадров                           : 25,000 кадров/секСтандарт вещания                         : PALЦветовое пространство                    : YUVСубдискретизация насыщенности            : 4:2:0Битовая глубина                          : 8 битТип развёртки                            : ЧересстрочнаяПорядок развёртки                        : Верхнее поле первоеМетод сжатия                             : С потерямиБит/(Пиксели*Кадры)                      : 0.680Временной код первого кадра              : 00:00:00:00Оригинал временного кода                 : Group of pictures headerGOP, открыто/закрыто                     : ОткрытоGOP, открыто/закрыто на первом кадре     : ЗакрытоРазмер потока                            : 944 Мбайт (92%)АудиоИдентификатор                            : 189 (0xBD)-128 (0x80)Формат                                   : AC-3Формат/Информация                        : Audio Coding 3Расширение режима                        : CM (complete main)Параметр Endianness формата              : BigРежим смешивания                         : DVD-VideoПродолжительность                        : 18 м.Вид битрейта                             : ПостоянныйБитрейт                                  : 448 Кбит/секКаналы                                   : 6 каналовРасположение каналов                     : Front: L C R, Side: L R, LFEЧастота                                  : 48,0 КГцЧастота кадров                           : 31,250 кадров/сек (1536 spf)Метод сжатия                             : С потерямиРазмер потока                            : 59,9 Мбайт (6%)МенюОбщееПолное имя                               : C:\Григорий Лепс - Полный вперед!\VIDEO_TS\VTS_01_2.VOBФормат                                   : MPEG-PSРазмер файла                             : 1024 МбайтПродолжительность                        : 18 м.Режим общего битрейта                    : ПеременныйОбщий поток                              : 7824 Кбит/секВидеоИдентификатор                            : 224 (0xE0)Формат                                   : MPEG VideoВерсия формата                           : Version 2Профиль формата                          : Main@MainПараметр BVOP формата                    : ДаПараметр матрицы формата                 : ВыборочнаяПараметр GOP формата                     : VariableСтруктура изображения                    : FrameПродолжительность                        : 18 м.Вид битрейта                             : ПеременныйБитрейт                                  : 7221 Кбит/секМаксимальный битрейт                     : 8000 Кбит/секШирина                                   : 720 пикселейВысота                                   : 576 пикселейСоотношение сторон                       : 16:9Частота кадров                           : 25,000 кадров/секСтандарт вещания                         : PALЦветовое пространство                    : YUVСубдискретизация насыщенности            : 4:2:0Битовая глубина                          : 8 битТип развёртки                            : ЧересстрочнаяПорядок развёртки                        : Верхнее поле первоеМетод сжатия                             : С потерямиБит/(Пиксели*Кадры)                      : 0.696Временной код первого кадра              : 00:18:42:14Оригинал временного кода                 : Group of pictures headerРазмер потока                            : 945 Мбайт (92%)АудиоИдентификатор                            : 189 (0xBD)-128 (0x80)Формат                                   : AC-3Формат/Информация                        : Audio Coding 3Расширение режима                        : CM (complete main)Параметр Endianness формата              : BigРежим смешивания                         : DVD-VideoПродолжительность                        : 18 м.Вид битрейта                             : ПостоянныйБитрейт                                  : 448 Кбит/секКаналы                                   : 6 каналовРасположение каналов                     : Front: L C R, Side: L R, LFEЧастота                                  : 48,0 КГцЧастота кадров                           : 31,250 кадров/сек (1536 spf)Метод сжатия                             : С потерямиЗадержка видео                           : -400 мс.Размер потока                            : 58,6 Мбайт (6%)МенюОбщееПолное имя                               : C:\Григорий Лепс - Полный вперед!\VIDEO_TS\VTS_01_3.VOBФормат                                   : MPEG-PSРазмер файла                             : 1024 МбайтПродолжительность                        : 19 м.Режим общего битрейта                    : ПеременныйОбщий поток                              : 7388 Кбит/секВидеоИдентификатор                            : 224 (0xE0)Формат                                   : MPEG VideoВерсия формата                           : Version 2Профиль формата                          : Main@MainПараметр BVOP формата                    : ДаПараметр матрицы формата                 : ВыборочнаяПараметр GOP формата                     : VariableСтруктура изображения                    : FrameПродолжительность                        : 19 м.Вид битрейта                             : ПеременныйБитрейт                                  : 6793 Кбит/секМаксимальный битрейт                     : 8000 Кбит/секШирина                                   : 720 пикселейВысота                                   : 576 пикселейСоотношение сторон                       : 16:9Частота кадров                           : 25,000 кадров/секСтандарт вещания                         : PALЦветовое пространство                    : YUVСубдискретизация насыщенности            : 4:2:0Битовая глубина                          : 8 битТип развёртки                            : ЧересстрочнаяПорядок развёртки                        : Верхнее поле первоеМетод сжатия                             : С потерямиБит/(Пиксели*Кадры)                      : 0.655Временной код первого кадра              : 00:37:00:16Оригинал временного кода                 : Group of pictures headerРазмер потока                            : 941 Мбайт (92%)АудиоИдентификатор                            : 189 (0xBD)-128 (0x80)Формат                                   : AC-3Формат/Информация                        : Audio Coding 3Расширение режима                        : CM (complete main)Параметр Endianness формата              : BigРежим смешивания                         : DVD-VideoПродолжительность                        : 19 м.Вид битрейта                             : ПостоянныйБитрейт                                  : 448 Кбит/секКаналы                                   : 6 каналовРасположение каналов                     : Front: L C R, Side: L R, LFEЧастота                                  : 48,0 КГцЧастота кадров                           : 31,250 кадров/сек (1536 spf)Метод сжатия                             : С потерямиЗадержка видео                           : -624 мс.Размер потока                            : 62,1 Мбайт (6%)МенюОбщееПолное имя                               : C:\Григорий Лепс - Полный вперед!\VIDEO_TS\VTS_01_4.VOBФормат                                   : MPEG-PSРазмер файла                             : 1024 МбайтПродолжительность                        : 18 м.Режим общего битрейта                    : ПеременныйОбщий поток                              : 7741 Кбит/секВидеоИдентификатор                            : 224 (0xE0)Формат                                   : MPEG VideoВерсия формата                           : Version 2Профиль формата                          : Main@MainПараметр BVOP формата                    : ДаПараметр матрицы формата                 : ВыборочнаяПараметр GOP формата                     : M=3, N=15Структура изображения                    : FrameПродолжительность                        : 18 м.Вид битрейта                             : ПеременныйБитрейт                                  : 7139 Кбит/секМаксимальный битрейт                     : 8000 Кбит/секШирина                                   : 720 пикселейВысота                                   : 576 пикселейСоотношение сторон                       : 16:9Частота кадров                           : 25,000 кадров/секСтандарт вещания                         : PALЦветовое пространство                    : YUVСубдискретизация насыщенности            : 4:2:0Битовая глубина                          : 8 битТип развёртки                            : ЧересстрочнаяПорядок развёртки                        : Верхнее поле первоеМетод сжатия                             : С потерямиБит/(Пиксели*Кадры)                      : 0.689Временной код первого кадра              : 00:56:23:09Оригинал временного кода                 : Group of pictures headerGOP, открыто/закрыто                     : ОткрытоРазмер потока                            : 944 Мбайт (92%)АудиоИдентификатор                            : 189 (0xBD)-128 (0x80)Формат                                   : AC-3Формат/Информация                        : Audio Coding 3Расширение режима                        : CM (complete main)Параметр Endianness формата              : BigРежим смешивания                         : DVD-VideoПродолжительность                        : 18 м.Вид битрейта                             : ПостоянныйБитрейт                                  : 448 Кбит/секКаналы                                   : 6 каналовРасположение каналов                     : Front: L C R, Side: L R, LFEЧастота                                  : 48,0 КГцЧастота кадров                           : 31,250 кадров/сек (1536 spf)Метод сжатия                             : С потерямиЗадержка видео                           : -624 мс.Размер потока                            : 59,3 Мбайт (6%)МенюОбщееПолное имя                               : C:\Григорий Лепс - Полный вперед!\VIDEO_TS\VTS_01_5.VOBФормат                                   : MPEG-PSРазмер файла                             : 1024 МбайтПродолжительность                        : 19 м.Режим общего битрейта                    : ПеременныйОбщий поток                              : 7459 Кбит/секВидеоИдентификатор                            : 224 (0xE0)Формат                                   : MPEG VideoВерсия формата                           : Version 2Профиль формата                          : Main@MainПараметр BVOP формата                    : ДаПараметр матрицы формата                 : ВыборочнаяПараметр GOP формата                     : VariableСтруктура изображения                    : FrameПродолжительность                        : 19 м.Вид битрейта                             : ПеременныйБитрейт                                  : 6862 Кбит/секМаксимальный битрейт                     : 8000 Кбит/секШирина                                   : 720 пикселейВысота                                   : 576 пикселейСоотношение сторон                       : 16:9Частота кадров                           : 25,000 кадров/секСтандарт вещания                         : PALЦветовое пространство                    : YUVСубдискретизация насыщенности            : 4:2:0Битовая глубина                          : 8 битТип развёртки                            : ЧересстрочнаяПорядок развёртки                        : Верхнее поле первоеМетод сжатия                             : С потерямиБит/(Пиксели*Кадры)                      : 0.662Временной код первого кадра              : 01:14:53:02Оригинал временного кода                 : Group of pictures headerРазмер потока                            : 942 Мбайт (92%)АудиоИдентификатор                            : 189 (0xBD)-128 (0x80)Формат                                   : AC-3Формат/Информация                        : Audio Coding 3Расширение режима                        : CM (complete main)Параметр Endianness формата              : BigРежим смешивания                         : DVD-VideoПродолжительность                        : 19 м.Вид битрейта                             : ПостоянныйБитрейт                                  : 448 Кбит/секКаналы                                   : 6 каналовРасположение каналов                     : Front: L C R, Side: L R, LFEЧастота                                  : 48,0 КГцЧастота кадров                           : 31,250 кадров/сек (1536 spf)Метод сжатия                             : С потерямиЗадержка видео                           : -648 мс.Размер потока                            : 61,5 Мбайт (6%)МенюОбщееПолное имя                               : C:\Григорий Лепс - Полный вперед!\VIDEO_TS\VTS_01_6.VOBФормат                                   : MPEG-PSРазмер файла                             : 1024 МбайтПродолжительность                        : 18 м.Режим общего битрейта                    : ПеременныйОбщий поток                              : 7864 Кбит/секВидеоИдентификатор                            : 224 (0xE0)Формат                                   : MPEG VideoВерсия формата                           : Version 2Профиль формата                          : Main@MainПараметр BVOP формата                    : ДаПараметр матрицы формата                 : ВыборочнаяПараметр GOP формата                     : VariableСтруктура изображения                    : FrameПродолжительность                        : 18 м.Вид битрейта                             : ПеременныйБитрейт                                  : 7259 Кбит/секМаксимальный битрейт                     : 8000 Кбит/секШирина                                   : 720 пикселейВысота                                   : 576 пикселейСоотношение сторон                       : 16:9Частота кадров                           : 25,000 кадров/секСтандарт вещания                         : PALЦветовое пространство                    : YUVСубдискретизация насыщенности            : 4:2:0Битовая глубина                          : 8 битТип развёртки                            : ЧересстрочнаяПорядок развёртки                        : Верхнее поле первоеМетод сжатия                             : С потерямиБит/(Пиксели*Кадры)                      : 0.700Временной код первого кадра              : 01:34:04:20Оригинал временного кода                 : Group of pictures headerGOP, открыто/закрыто                     : ОткрытоРазмер потока                            : 945 Мбайт (92%)АудиоИдентификатор                            : 189 (0xBD)-128 (0x80)Формат                                   : AC-3Формат/Информация                        : Audio Coding 3Расширение режима                        : CM (complete main)Параметр Endianness формата              : BigРежим смешивания                         : DVD-VideoПродолжительность                        : 18 м.Вид битрейта                             : ПостоянныйБитрейт                                  : 448 Кбит/секКаналы                                   : 6 каналовРасположение каналов                     : Front: L C R, Side: L R, LFEЧастота                                  : 48,0 КГцЧастота кадров                           : 31,250 кадров/сек (1536 spf)Метод сжатия                             : С потерямиЗадержка видео                           : -656 мс.Размер потока                            : 58,3 Мбайт (6%)МенюОбщееПолное имя                               : C:\Григорий Лепс - Полный вперед!\VIDEO_TS\VTS_01_7.VOBФормат                                   : MPEG-PSРазмер файла                             : 1024 МбайтПродолжительность                        : 19 м.Режим общего битрейта                    : ПеременныйОбщий поток                              : 7462 Кбит/секВидеоИдентификатор                            : 224 (0xE0)Формат                                   : MPEG VideoВерсия формата                           : Version 2Профиль формата                          : Main@MainПараметр BVOP формата                    : ДаПараметр матрицы формата                 : ВыборочнаяПараметр GOP формата                     : M=3, N=15Структура изображения                    : FrameПродолжительность                        : 19 м.Вид битрейта                             : ПеременныйБитрейт                                  : 6865 Кбит/секМаксимальный битрейт                     : 8000 Кбит/секШирина                                   : 720 пикселейВысота                                   : 576 пикселейСоотношение сторон                       : 16:9Частота кадров                           : 25,000 кадров/секСтандарт вещания                         : PALЦветовое пространство                    : YUVСубдискретизация насыщенности            : 4:2:0Битовая глубина                          : 8 битТип развёртки                            : ЧересстрочнаяПорядок развёртки                        : Верхнее поле первоеМетод сжатия                             : С потерямиБит/(Пиксели*Кадры)                      : 0.662Временной код первого кадра              : 01:52:16:21Оригинал временного кода                 : Group of pictures headerGOP, открыто/закрыто                     : ОткрытоGOP, открыто/закрыто на первом кадре     : ЗакрытоРазмер потока                            : 942 Мбайт (92%)АудиоИдентификатор                            : 189 (0xBD)-128 (0x80)Формат                                   : AC-3Формат/Информация                        : Audio Coding 3Расширение режима                        : CM (complete main)Параметр Endianness формата              : BigРежим смешивания                         : DVD-VideoПродолжительность                        : 19 м.Вид битрейта                             : ПостоянныйБитрейт                                  : 448 Кбит/секКаналы                                   : 6 каналовРасположение каналов                     : Front: L C R, Side: L R, LFEЧастота                                  : 48,0 КГцЧастота кадров                           : 31,250 кадров/сек (1536 spf)Метод сжатия                             : С потерямиЗадержка видео                           : -232 мс.Размер потока                            : 61,5 Мбайт (6%)МенюОбщееПолное имя                               : C:\Григорий Лепс - Полный вперед!\VIDEO_TS\VTS_01_8.VOBФормат                                   : MPEG-PSРазмер файла                             : 875 МбайтПродолжительность                        : 15 м.Режим общего битрейта                    : ПеременныйОбщий поток                              : 8155 Кбит/секВидеоИдентификатор                            : 224 (0xE0)Формат                                   : MPEG VideoВерсия формата                           : Version 2Профиль формата                          : Main@MainПараметр BVOP формата                    : ДаПараметр матрицы формата                 : ВыборочнаяПараметр GOP формата                     : M=3, N=15Структура изображения                    : FrameПродолжительность                        : 14 м.Вид битрейта                             : ПеременныйБитрейт                                  : 7545 Кбит/секМаксимальный битрейт                     : 8000 Кбит/секШирина                                   : 720 пикселейВысота                                   : 576 пикселейСоотношение сторон                       : 16:9Частота кадров                           : 25,000 кадров/секСтандарт вещания                         : PALЦветовое пространство                    : YUVСубдискретизация насыщенности            : 4:2:0Битовая глубина                          : 8 битТип развёртки                            : ЧересстрочнаяПорядок развёртки                        : Верхнее поле первоеМетод сжатия                             : С потерямиБит/(Пиксели*Кадры)                      : 0.728Временной код первого кадра              : 02:11:28:04Оригинал временного кода                 : Group of pictures headerРазмер потока                            : 809 Мбайт (92%)АудиоИдентификатор                            : 189 (0xBD)-128 (0x80)Формат                                   : AC-3Формат/Информация                        : Audio Coding 3Расширение режима                        : CM (complete main)Параметр Endianness формата              : BigРежим смешивания                         : DVD-VideoПродолжительность                        : 15 м.Вид битрейта                             : ПостоянныйБитрейт                                  : 448 Кбит/секКаналы                                   : 6 каналовРасположение каналов                     : Front: L C R, Side: L R, LFEЧастота                                  : 48,0 КГцЧастота кадров                           : 31,250 кадров/сек (1536 spf)Метод сжатия                             : С потерямиЗадержка видео                           : -624 мс.Размер потока                            : 48,1 Мбайт (5%)Меню

DVD+booklet

Скриншоты меню

Скриншоты


Для скачки контента: [Установить программу-клиент] и кликнуть по - Скачать

[asmlocator.ru].t389733.torrent 
Торрент: Зарегистрирован [ 2017-09-24 15:10 ] · F276C0C4994246169CAFD3875B112DBD79632D2D

Скачать .torrent

Скачать

41 KB

Статус: проверено
Скачан: 0 раз
Размер: 7,87 GB
terms.php
[Профиль] [ЛС]
Показать сообщения:    
Ответить на тему

Текущее время: 12-Дек 18:02

Часовой пояс: UTC ± 0



Вы не можете начинать темы
Вы не можете отвечать на сообщения
Вы не можете редактировать свои сообщения
Вы не можете удалять свои сообщения
Вы не можете голосовать в опросах
Вы не можете прикреплять файлы к сообщениям
Вы можете скачивать файлы