Patrice - TFF Rudolstadt Festival [2015, Reggae, HDTVRip 720p]

Ответить на тему
Статистика раздачи
Размер:  2,97 GB   |    Зарегистрирован:  26 дней   |    Скачан:  0 раз

Полного источника не было: Никогда

 
   
 
 
Автор Сообщение

star21 ®

Пол: Не указан

Стаж: 1 год 11 месяцев

Сообщений: 355767

Создавать темы 23-Сен-2017 05:00

[Цитировать]

Patrice - TFF Rudolstadt Festival Страна: Germany
Жанр: Reggae
Продолжительность: 01:14:54
Год выпуска: 2015 г.
Треклист:
01. Alive
02. Boxes
03. Change Today
04. Africanize Dem
05. God Bless You La La La
06. Cry Cry Cry
07. Clouds
08. Every Second
09. Sunshine
10. Everyday Good
11. Up In My Room
12. Fear Rules
13. Soulstorm
14. Shine On My Way
15. Bashment
16. Faces feat. NoraaКачество : HDTVRip 720p
ФКонтейнер: MKV
Видео кодек: AVC
Аудио кодек: AC3
Видео: AVC, 1280x720 (16:9), 25.000 fps, 5 180 Kbps
Аудио: AC-3, 48.0 KHz, 6 ch, 384 Kbps

Mediainfo

GeneralUnique ID                                : 251244319571619815352009146301120931678 (0xBD03E555E7091E5AB467AA049932675E)Complete name                            : M:\Patrice-TFF_Rudolstadt_Festival_(2015)-720p-x264-2015-NaWaK\Patrice-TFF_Rudolstadt_Festival_(2015)-720p-x264-2015-NaWaK.mkvFormat                                   : MatroskaFormat version                           : Version 4 / Version 2File size                                : 2.97 GiBDuration                                 : 1h 14mnOverall bit rate                         : 5 677 KbpsEncoded date                             : UTC 2015-11-17 19:29:22Writing application                      : mkvmerge v8.3.0 ('Over the Horizon') 64bitWriting library                          : libebml v1.3.1 + libmatroska v1.4.2DURATION                                 : 01:14:54.304000000NUMBER_OF_FRAMES                         : 140447NUMBER_OF_BYTES                          : 215726592_STATISTICS_WRITING_APP                  : mkvmerge v8.3.0 ('Over the Horizon') 64bit_STATISTICS_WRITING_DATE_UTC             : 2015-11-17 19:29:22_STATISTICS_TAGS                         : BPS DURATION NUMBER_OF_FRAMES NUMBER_OF_BYTESVideoID                                       : 1Format                                   : AVCFormat/Info                              : Advanced Video CodecFormat profile                           : High@L4.1Format settings, CABAC                   : YesFormat settings, ReFrames                : 5 framesCodec ID                                 : V_MPEG4/ISO/AVCDuration                                 : 1h 14mnBit rate                                 : 5 180 KbpsWidth                                    : 1 280 pixelsHeight                                   : 720 pixelsDisplay aspect ratio                     : 16:9Frame rate mode                          : ConstantFrame rate                               : 25.000 fpsColor space                              : YUVChroma subsampling                       : 4:2:0Bit depth                                : 8 bitsScan type                                : ProgressiveBits/(Pixel*Frame)                       : 0.225Stream size                              : 2.71 GiB (91%)Writing library                          : x264 core 148 r2638 7599210Encoding settings                        : cabac=1 / ref=5 / deblock=1:-1:-1 / analyse=0x3:0x133 / me=umh / subme=9 / psy=1 / psy_rd=1.00:0.00 / mixed_ref=1 / me_range=24 / chroma_me=1 / trellis=1 / 8x8dct=1 / cqm=0 / deadzone=21,11 / fast_pskip=1 / chroma_qp_offset=-2 / threads=12 / lookahead_threads=3 / sliced_threads=0 / nr=0 / decimate=1 / interlaced=0 / bluray_compat=0 / constrained_intra=0 / bframes=16 / b_pyramid=2 / b_adapt=2 / b_bias=0 / direct=3 / weightb=1 / open_gop=0 / weightp=2 / keyint=250 / keyint_min=25 / scenecut=40 / intra_refresh=0 / rc_lookahead=60 / rc=crf / mbtree=1 / crf=19.0 / qcomp=0.60 / qpmin=0 / qpmax=69 / qpstep=4 / ip_ratio=1.40 / aq=1:1.00Default                                  : YesForced                                   : NoAudioID                                       : 2Format                                   : AC-3Format/Info                              : Audio Coding 3Mode extension                           : CM (complete main)Format settings, Endianness              : BigCodec ID                                 : A_AC3Duration                                 : 1h 14mnBit rate mode                            : ConstantBit rate                                 : 384 KbpsChannel(s)                               : 6 channelsChannel positions                        : Front: L C R, Side: L R, LFESampling rate                            : 48.0 KHzCompression mode                         : LossyStream size                              : 206 MiB (7%)Default                                  : YesForced                                   : No

Для скачки контента: [Установить программу-клиент] и кликнуть по - Скачать

[asmlocator.ru].t388399.torrent 
Торрент: Зарегистрирован [ 2017-09-23 05:00 ] · 1C019C4054DAA776CF54F1689B62513956D0E600

Скачать .torrent

Скачать

15 KB

Статус: проверено
Скачан: 0 раз
Размер: 2,97 GB
terms.php
[Профиль] [ЛС]
Показать сообщения:    
Ответить на тему

Текущее время: 19-Окт 07:21

Часовой пояс: UTC ± 0



Вы не можете начинать темы
Вы не можете отвечать на сообщения
Вы не можете редактировать свои сообщения
Вы не можете удалять свои сообщения
Вы не можете голосовать в опросах
Вы не можете прикреплять файлы к сообщениям
Вы можете скачивать файлы