Продажа недвижимости в Лос-Анджелесе (51 серия) / Selling L A (Jim Macpherson / Джим Макферсон, Brian Robel / Брайан Робел) [2015, документальный, DVB]

Ответить на тему
Статистика раздачи
Размер:  33,69 GB   |    Зарегистрирован:  1 месяц 1 день   |    Скачан:  0 раз

Полного источника не было: Никогда

 
   
 
 
Автор Сообщение

star21 ®

Пол: Не указан

Стаж: 1 год 11 месяцев

Сообщений: 355767

Создавать темы 17-Сен-2017 10:35

[Цитировать]

Продажа недвижимости в Лос-Анджелесе / Selling L A Дата/Год выпуска: 2015
Страна: США
Жанр: документальный
Продолжительность: серии по 21 минуте
Перевод: Профессиональный (двухголосый закадровый)
Режиссер: Jim Macpherson / Джим Макферсон, Brian Robel / Брайан РобелТелеканал: Fine Living
Описание: Лос-Анджелес, от Беверли-Хиллз до Сансет-Стрип, - вотчина богатых и знаменитых, живущих на широкую ногу. Давайте посмотрим, как три риэлтерские компании формируют списки клиентов с миллионным состоянием, совершим туры по фешенебельным домам и проследим, как происходит покупка элитной недвижимости в условиях острой конкурентной борьбы.Дополнительная информация: в отличие от сериала Продажа недвижимости в Нью-Йорке, здесь вы увидите не квартиры с баснословными ценами на квадратные метры скромной по американским меркам жилплощади , а роскошные особняки фешенебельных районов на побережье Калифорнии стоимостью десятки миллионов долларов, солидных клиентов и холеных агентов ведущих риэлторских агентств, успешно проводящих многомиллионные сделки, маркетинговые акции по продаже недвижимости с привлечением множества специалистов других областей : от продажи предметов искусства и мебели, дизайнеров модной одежды до мастеров ландшафтного дизайна, компьютерных технологий, яхт-клубов. Чего только они не придумают, чтобы раскрутить и продать дома своих клиентов, найти нужных покупателей, и еще раз доказать, что невозможное возможно.... А заодно заработать комиссионные в размере этак 600 тыс. долларов...Сэмпл 1: http://multi-up.com/1124702
Сэмпл 2: http://multi-up.com/1124700качество: DVB
формат: MPG
Видео: MPEG2 Video 720x576 (16:9) 25fps 15000kbps [V: mpeg2 main, yuv420p, 720x576, 15000 kb/s]
Аудио: MPEG Audio 48000Hz mono 96kbps [A: mp2, 48000 Hz, mono, 96 kb/s]

Список выпусков/серий

Названия серий взяты произвольно, по первым словам в начале каждой, чтобы хоть как-то их различать, т.к. официальных названий не существует

MediaInfo

GeneralComplete name                  : F:\Продажа недвижижмости в Лос-Анджелесе\01. Барон.mpgFormat                         : MPEG-PSFile size                      : 680 MiBDuration                       : 21mn 32sOverall bit rate mode          : VariableOverall bit rate               : 4 410 KbpsVideoID                             : 224 (0xE0)Format                         : MPEG VideoFormat version                 : Version 2Format profile                 : Main@MainFormat settings, BVOP          : YesFormat settings, Matrix        : CustomFormat settings, GOP           : M=3, N=12Format settings, picture struc : FrameDuration                       : 21mn 32sBit rate mode                  : VariableBit rate                       : 4 226 KbpsMaximum bit rate               : 15.0 MbpsWidth                          : 720 pixelsHeight                         : 576 pixelsDisplay aspect ratio           : 16:9Frame rate                     : 25.000 fpsStandard                       : PALColor space                    : YUVChroma subsampling             : 4:2:0Bit depth                      : 8 bitsScan type                      : InterlacedScan order                     : Top Field FirstCompression mode               : LossyBits/(Pixel*Frame)             : 0.408Time code of first frame       : 00:00:00:00Time code source               : Group of pictures headerStream size                    : 651 MiB (96%)AudioID                             : 192 (0xC0)Format                         : MPEG AudioFormat version                 : Version 1Format profile                 : Layer 2Duration                       : 21mn 32sBit rate mode                  : ConstantBit rate                       : 96.0 KbpsChannel(s)                     : 1 channelSampling rate                  : 48.0 KHzCompression mode               : LossyDelay relative to video        : 24msStream size                    : 14.8 MiB (2%)
Другие мои раздачи: архитектура, недвижимость, живопись http://rutracker.org/forum/tracker.php?rid=8171303

Для скачки контента: [Установить программу-клиент] и кликнуть по - Скачать

[asmlocator.ru].t383397.torrent 
Торрент: Зарегистрирован [ 2017-09-17 10:35 ] · D0C0FE71E5F74662F9AD96AE0E8AB0B229563549

Скачать .torrent

Скачать

173 KB

Статус: проверено
Скачан: 0 раз
Размер: 33,69 GB
terms.php
[Профиль] [ЛС]
Показать сообщения:    
Ответить на тему

Текущее время: 19-Окт 07:10

Часовой пояс: UTC ± 0



Вы не можете начинать темы
Вы не можете отвечать на сообщения
Вы не можете редактировать свои сообщения
Вы не можете удалять свои сообщения
Вы не можете голосовать в опросах
Вы не можете прикреплять файлы к сообщениям
Вы можете скачивать файлы