Смятение / Tumult (Джонни Баррингтон / Johnny Barrington) [2011, Великобритания, короткометражка, DVDRip] Sub Rus

Ответить на тему
Статистика раздачи
Размер:  86 MB   |    Зарегистрирован:  1 месяц 1 день   |    Скачан:  0 раз

Полного источника не было: Никогда

 
   
 
 
Автор Сообщение

star21 ®

Пол: Не указан

Стаж: 1 год 11 месяцев

Сообщений: 355767

Создавать темы 17-Сен-2017 10:35

[Цитировать]

Смятение / Tumult / Короткометражка Страна: Великобритания
Жанр: короткометражка
Год выпуска: 2011
Продолжительность: 00:13:54Перевод: Субтитры (sombre soul)
Субтитры: русские
Режиссер: Джонни Баррингтон / Johnny BarringtonВ ролях: Жан-Марк Шотемс, Эйлин Данвуди, Гисли Орн Гардарссон, Говард Ли, Реймонд Мирнс, Ингвар Эггерт Сигурдссон, Ивар Орн Свериссон, Долли ВелсОписание: Отряд викингов после кровавого сражения блуждает по голой степи. Их вождь при смерти и готовится передать власть своему сыну, но на горизонте неожиданно появляется странная повозка...Сэмпл: http://yadi.sk/d/ALmnzpil4ZOcCКачество видео: DVDRip
Формат видео: MP4Видео: MPEG4 Video (H264) 640x360 24fps 748kbps
Аудио: AAC 44100Hz stereo 109kbps
Формат субтитров: hardsub (неотключаемые), русские (отключаемые)

MediaInfo

General
Полное имя : D:\МОИ ПЕРЕВОДЫ\Смятение (Tulmut) (2011)\Смятение (Tulmut) (2011).mp4
Формат : MPEG-4
Профиль формата : Base Media
Идентификатор кодека : isom
Размер файла : 85.7 MiB
Продолжительность : 13mn 54s
Режим общего битрейта : Variable
Общий поток : 861 Kbps
Дата кодирования : UTC 2012-06-05 11:05:22
Дата пометки : UTC 2012-06-06 11:05:24Video
Идентификатор : 1
Формат : AVC
Формат/Информация : Advanced Video Codec
Профиль формата : High@L3.1
Параметр CABAC формата : Yes
Параметр ReFrames формата : 4 frames
Идентификатор кодека : avc1
Идентификатор кодека/Информация : Advanced Video Coding
Продолжительность : 13mn 54s
Битрейт : 748 Kbps
Максимальный битрейт : 2 379 Kbps
Ширина : 640 pixels
Высота : 360 pixels
Соотношение сторон : 16:9
Режим частоты кадров : Constant
Частота кадров : 24.000 fps
Цветовое пространство : YUV
Субдискретизация насыщенности : 4:2:0
Битовая глубина : 8 bits
Тип развёртки : Progressive
Бит/(Пиксели*Кадры) : 0.135
Размер потока : 74.4 MiB (87%)
Библиотека кодирования : Vimeo Encoder
Дата кодирования : UTC 2012-06-05 11:05:22
Дата пометки : UTC 2012-06-05 11:05:24Audio
Идентификатор : 2
Формат : AAC
Формат/Информация : Advanced Audio Codec
Профиль формата : LC
Идентификатор кодека : 40
Продолжительность : 13mn 54s
Вид битрейта : Variable
Битрейт : 110 Kbps
Максимальный битрейт : 165 Kbps
Каналы : 2 channels
Расположение каналов : Front: L R
Частота : 44.1 KHz
Метод сжатия : Lossy
Размер потока : 10.9 MiB (13%)
Дата кодирования : UTC 2012-06-05 11:05:24
Дата пометки : UTC 2012-06-05 11:05:24

Скриншот c названием фильма

Скриншоты

Для скачки контента: [Установить программу-клиент] и кликнуть по - Скачать

[asmlocator.ru].t383393.torrent 
Торрент: Зарегистрирован [ 2017-09-17 10:35 ] · 822DBA5E469D744D70134C22DE000BA2E892B497

Скачать .torrent

Скачать

14 KB

Статус: проверено
Скачан: 0 раз
Размер: 86 MB
terms.php
[Профиль] [ЛС]
Показать сообщения:    
Ответить на тему

Текущее время: 19-Окт 07:15

Часовой пояс: UTC ± 0



Вы не можете начинать темы
Вы не можете отвечать на сообщения
Вы не можете редактировать свои сообщения
Вы не можете удалять свои сообщения
Вы не можете голосовать в опросах
Вы не можете прикреплять файлы к сообщениям
Вы можете скачивать файлы