XLO - XLO/Reference Test & Burn In Gold CD (image + .cue) FLAC

Ответить на тему
Статистика раздачи
Размер:  330 MB   |    Зарегистрирован:  1 месяц 3 дня   |    Скачан:  0 раз

Полного источника не было: 11 часов

 
   
 
 
Автор Сообщение

star21 ®

Пол: Не указан

Стаж: 1 год 11 месяцев

Сообщений: 355767

Создавать темы 15-Сен-2017 09:36

[Цитировать]

XLO/Reference Test & Burn In Gold CDПостер:
Производитель: XLO
Сайт производителя: https://www.amazon.com/XLO-Reference-Test-Burn-Recordings/dp/B0000015AL
Год выпуска: 1995
Язык: English
Тип рипа: image + .cue
Аудио кодек: FLAC
Аудио: 44.1 Khz 16Bit
Описание: Специальная «золотая» версия диска "XLO Reference Recordings Test & Burn In CD". Это пошаговое руководство по настройке и доводке вашей аудиосистемы в автомобиле или домашним кинотеатре. Диск включает все необходимые измерительные сигналы, музыкальные фрагменты, тестовые записи и прочие материалы, необходимые для качественной настройки аудиосистемы.
С помощью компакт диска вы сможете установить и сбалансировать систему, проверить размещение акустических систем, скорректировать акустически их размещение в любом помещении, а также «демагнетизировать» любую систему для наилучшего качества звука. Всё это можно сделать с помощью только одного этого диска - без дополнительных устройств! Также CD-диск включает в себя демонстрационные музыкальные записи высочайшего качества, сделанные лейблом Reference Recordings. Компания XLO рекомендует "прогревать" перед началом использования все кабели с помощью этого диска.

Отчет качества

Exact Audio Copy V1.3 from 2. September 2016EAC extraction logfile from 28. February 2017, 14:37Various Artists / XLO Reference Recordings Test & Burn-In CDUsed drive : PIONEER BD-RW BDR-209M Adapter: 1 ID: 0Read mode : Secure
Utilize accurate stream : Yes
Defeat audio cache : Yes
Make use of C2 pointers : NoRead offset correction : 667
Overread into Lead-In and Lead-Out : No
Fill up missing offset samples with silence : Yes
Delete leading and trailing silent blocks : No
Null samples used in CRC calculations : Yes
Used interface : Native Win32 interface for Win NT & 2000Used output format : User Defined Encoder
Selected bitrate : 1024 kBit/s
Quality : High
Add ID3 tag : No
Command line compressor : C:\Program Files (x86)\Exact Audio Copy\Flac\flac.exe
Additional command line options : -V -8 -T "Date=%year%" -T "Genre=%genre%" %source%TOC of the extracted CD Track | Start | Length | Start sector | End sector
---------------------------------------------------------
1 | 0:00.00 | 0:32.00 | 0 | 2399
2 | 0:32.00 | 0:11.50 | 2400 | 3274
3 | 0:43.50 | 0:28.20 | 3275 | 5394
4 | 1:11.70 | 1:05.52 | 5395 | 10321
5 | 2:17.47 | 1:18.28 | 10322 | 16199
6 | 3:36.00 | 4:22.20 | 16200 | 35869
7 | 7:58.20 | 1:02.65 | 35870 | 40584
8 | 9:01.10 | 1:02.60 | 40585 | 45294
9 | 10:03.70 | 15:11.45 | 45295 | 113664
10 | 25:15.40 | 1:56.45 | 113665 | 122409
11 | 27:12.10 | 1:56.60 | 122410 | 131169
12 | 29:08.70 | 1:56.10 | 131170 | 139879
13 | 31:05.05 | 6:43.25 | 139880 | 170129
14 | 37:48.30 | 5:26.22 | 170130 | 194601
15 | 43:14.52 | 2:21.57 | 194602 | 205233
16 | 45:36.34 | 5:03.26 | 205234 | 227984
17 | 50:39.60 | 5:57.55 | 227985 | 254814
18 | 56:37.40 | 7:50.27 | 254815 | 290091Range status and errorsSelected range Filename C:\Users\Jean\Music\Various Artists - XLO Reference Recordings Test & Burn-In CD.wav Peak level 99.3 %
Extraction speed 7.7 X
Range quality 100.0 %
Test CRC 3E6D0D05
Copy CRC 3E6D0D05
Copy OKNo errors occurredAccurateRip summaryTrack 1 accurately ripped (confidence 45) [A2C58E01] (AR v2)
Track 2 accurately ripped (confidence 45) [DF5856AE] (AR v2)
Track 3 accurately ripped (confidence 44) [94A4A010] (AR v2)
Track 4 accurately ripped (confidence 27) [5A255E20] (AR v2)
Track 5 accurately ripped (confidence 44) [090FF830] (AR v2)
Track 6 accurately ripped (confidence 45) [9E0B2D18] (AR v2)
Track 7 accurately ripped (confidence 47) [1AA7E6A7] (AR v2)
Track 8 accurately ripped (confidence 47) [BCC12822] (AR v2)
Track 9 accurately ripped (confidence 46) [348FEA76] (AR v2)
Track 10 accurately ripped (confidence 45) [9B929817] (AR v2)
Track 11 accurately ripped (confidence 45) [9A9E36B1] (AR v2)
Track 12 accurately ripped (confidence 45) [7995C5B7] (AR v2)
Track 13 accurately ripped (confidence 46) [24068370] (AR v2)
Track 14 accurately ripped (confidence 46) [3C889CE4] (AR v2)
Track 15 accurately ripped (confidence 46) [B633C323] (AR v2)
Track 16 accurately ripped (confidence 47) [A27EB779] (AR v2)
Track 17 accurately ripped (confidence 45) [A720E0D9] (AR v2)
Track 18 accurately ripped (confidence 44) [478E55D6] (AR v2)All tracks accurately rippedEnd of status report---- CUETools DB Plugin V2.1.6[CTDB TOCID: SseAlMmUWEhnCWTNSm_k5Fw.ArQ-] found
Submit result: SseAlMmUWEhnCWTNSm_k5Fw.ArQ- has been confirmed
Track | CTDB Status
1 | (203/205) Accurately ripped
2 | (203/205) Accurately ripped
3 | (203/205) Accurately ripped
4 | (202/205) Accurately ripped
5 | (202/205) Accurately ripped
6 | (201/205) Accurately ripped
7 | (202/205) Accurately ripped
8 | (201/205) Accurately ripped
9 | (198/205) Accurately ripped
10 | (201/205) Accurately ripped
11 | (202/205) Accurately ripped
12 | (202/205) Accurately ripped
13 | (197/205) Accurately ripped
14 | (199/205) Accurately ripped
15 | (198/205) Accurately ripped
16 | (198/205) Accurately ripped
17 | (194/205) Accurately ripped
18 | (188/205) Accurately ripped==== Log checksum 01235C1170BC7EFED0463E25D4840C54211A2E97F3FDC5989D0431F5630236A4 ====

Скриншот/треклист

1. Professor Johnson - Channel Identification
2. Professor Johnson - Voice in-Phase
3. Professor Johnson - Voice Out-Of-Phase
4. Professor Johnson - Clap Track
5. Professor Johnson - 315 Hz Test Tone
6. Professor Johnson - Prof. Johnson Does Something Spatial
7. Professor Johnson - Demagnetizing Sweep
8. Professor Johnson - Demagnetizing Fade
9. Professor Johnson - System Burn-In
10. Professor Johnson - Mono, in Phase
11. Professor Johnson - Mono, Out-Of-Phase
12. Professor Johnson - Stereo, Out of Absolute Phase
13. Eileen Farrell - Stormy Weather
14. Bob Lark - Shiny Stockings
15. DePaul University Jazz Ensemble - Derivations for Clairnet and Band, Rag Movement
16. Czech State Philharmonic - The Queen's Monastery
17. Turtle Creek Chorale - Ave Maria
18. Frederick Fennell - Polka and Fugue

Для скачки контента: [Установить программу-клиент] и кликнуть по - Скачать

[asmlocator.ru].t381457.torrent 
Торрент: Зарегистрирован [ 2017-09-15 09:35 ] · BA960FC64C7B685A0608724CD5E6D6BC792CD9B5

Скачать .torrent

Скачать

14 KB

Статус: проверено
Скачан: 0 раз
Размер: 330 MB
terms.php
[Профиль] [ЛС]
Показать сообщения:    
Ответить на тему

Текущее время: 19-Окт 07:22

Часовой пояс: UTC ± 0



Вы не можете начинать темы
Вы не можете отвечать на сообщения
Вы не можете редактировать свои сообщения
Вы не можете удалять свои сообщения
Вы не можете голосовать в опросах
Вы не можете прикреплять файлы к сообщениям
Вы можете скачивать файлы