Совершенный Человек-Паук против Зловещей Шестёрки / Великий Человек-Паук / Ultimate Spider-Man vs Sinister Six / Сезон: 4 / Серии: 1-26 из 26 (Тим Элдред, Алекс Сото) [2016, Приключения, комедия, WEB-DL 720p] MVO + Original

Ответить на тему
Статистика раздачи
Размер:  18,48 GB   |    Зарегистрирован:  3 месяца 13 дней   |    Скачан:  0 раз

Полного источника не было: Никогда

 
   
 
 
Автор Сообщение

star21 ®

Пол: Не указан

Стаж: 2 года 1 месяц

Сообщений: 354226

Создавать темы 30-Авг-2017 03:15

[Цитировать]

Совершенный Человек-Паук против Зловещей Шестёрки / Ultimate Spider-Man vs Sinister Six Оригинальное название: Ultimate Spider-Man. Web Warriors
Русское название: Совершенный Человек-Паук. Паутинные бойцы
Год выпуска: 2016
Страна: США
Жанр: Приключения, экранизация комиксов, комедия
Продолжительность серии: 20 минут (серия)
Перевод: Любительский (многоголосый закадровый) рг sergoleone
Субтитры: нет
Сэмпл: скачатьПроизводтсво: MARVEL Animated Studios
Режиссёр: Тим Элдред, Алекс Сото / Tim Eldred, Alex SotoРоли озвучивали: Дрейк Белл, Стивен Уэбер, Дж.К. Симмонс, Чи МакБрайд и другиеОписание: Новый мультсериал о Человеке-пауке, являющийся переделкой основной серии мультфильмов. Теперь главный герой Питер Паркер превратился из наивного и отчаянного подростка в настоящего героя, который примирился со своим происхождением и способностями. Новые серии покажут уникальное путешествие, в процессе которого мы увидим, как наш любимый стенолаз объединяется с другими супергероями Марвел в никогда ранее не виденных сюжетах о новой жизни, полной сложных задач и новых друзей. Перевод: Василий Слизень
Роли озвуивали: Денис Коровин, Дмитрий Лунёв и Гамлетка Цезаревна.Качество: WEB-DL 720p
Формат: MKV
Видео кодек: h264
Аудио кодек: AC3, AAC
Видео: MPEG4 Video (H264) 1280x720 23.976fps ~3800Kbps
Аудио 1 (MVO): Dolby AC3 48000Hz stereo 192Kbps,
Аудио 2 (оригинал): Dolby AC3 48000Hz 5.1 384Kbps,
предыдущие и альтернативные раздачи

Скриншоты:

Список серий:

Атака «Гидры». Часть 1
Атака «Гидры». Часть 2
Майлз вне дома
Железный Стервятник
Ящеры
Двойной Агент Веном
На пляже
Анти-Веном
Гидромен
Новая зловещая шестёрка. Часть 1
Новая зловещая шестёрка. Часть 2

MI

Код:
General
Unique ID : 199155484192579598630144997105390263126 (0x95D3F378A360D0078126EAED7D171B56)
Complete name : Z:\HD\Ultimate Spider-Man. Season 4 (WEBRip l 720p l SerGoLeOne)\Ultimate.Spider-Man.vs.The.Sinister.6.S04E01.Hydra.Attacks.Part.1.720p.WEB-DL.DD5.1.H.264-SerGoLeOne.mkv
Format : Matroska
Format version : Version 2
File size : 760 MiB
Duration : 22mn 3s
Overall bit rate : 4 820 Kbps
Encoded date : UTC 2017-01-06 13:34:06
Writing application : mkvmerge v5.4.0 ('Piper') built on Mar 10 2012 13:34:39
Writing library : libebml v1.2.3 + libmatroska v1.3.0
DURATION : 00:21:26.451000000
NUMBER_OF_FRAMES : 392
NUMBER_OF_BYTES : 12479
_STATISTICS_WRITING_APP : mkvmerge v8.9.0 ('Father Daughter') 64bit
_STATISTICS_WRITING_DATE_UT : 2016-02-22 08:37:32
_STATISTICS_TAGS : BPS DURATION NUMBER_OF_FRAMES NUMBER_OF_BYTESVideo
ID : 1
Format : AVC
Format/Info : Advanced Video Codec
Format profile : High@L3.1
Format settings, CABAC : No
Format settings, ReFrames : 2 frames
Codec ID : V_MPEG4/ISO/AVC
Duration : 22mn 3s
Bit rate : 4 148 Kbps
Width : 1 280 pixels
Height : 720 pixels
Display aspect ratio : 16:9
Frame rate mode : Constant
Frame rate : 23.976 fps
Color space : YUV
Chroma subsampling : 4:2:0
Bit depth : 8 bits
Scan type : Progressive
Bits/(Pixel*Frame) : 0.188
Stream size : 654 MiB (86%)
Title : H.264
Default : Yes
Forced : No
Color range : Limited
Color primaries : BT.709
Transfer characteristics : BT.709
Matrix coefficients : BT.709Audio #1
ID : 2
Format : AC-3
Format/Info : Audio Coding 3
Mode extension : CM (complete main)
Format settings, Endianness : Big
Codec ID : A_AC3
Duration : 22mn 3s
Bit rate mode : Constant
Bit rate : 192 Kbps
Channel(s) : 2 channels
Channel positions : Front: L R
Sampling rate : 48.0 KHz
Compression mode : Lossy
Stream size : 30.3 MiB (4%)
Language : Russian
Default : Yes
Forced : NoAudio #2
ID : 3
Format : AC-3
Format/Info : Audio Coding 3
Mode extension : CM (complete main)
Format settings, Endianness : Big
Codec ID : A_AC3
Duration : 22mn 3s
Bit rate mode : Constant
Bit rate : 384 Kbps
Channel(s) : 6 channels
Channel positions : Front: L C R, Side: L R, LFE
Sampling rate : 48.0 KHz
Compression mode : Lossy
Stream size : 60.6 MiB (8%)
Language : English
Default : No
Forced : NoText
ID : 4
Format : UTF-8
Codec ID : S_TEXT/UTF8
Codec ID/Info : UTF-8 Plain Text
Title : CC
Language : English
Default : No
Forced : No

Для скачки контента: [Установить программу-клиент] и кликнуть по - Скачать

[asmlocator.ru].t366836.torrent 
Торрент: Зарегистрирован [ 2017-08-30 03:15 ] · 2C34172B8C70E993D1CB40B8283FF586B9887334

Скачать .torrent

Скачать

50 KB

Статус: проверено
Скачан: 0 раз
Размер: 18,48 GB
terms.php
[Профиль] [ЛС]
Показать сообщения:    
Ответить на тему

Текущее время: 12-Дек 18:02

Часовой пояс: UTC ± 0



Вы не можете начинать темы
Вы не можете отвечать на сообщения
Вы не можете редактировать свои сообщения
Вы не можете удалять свои сообщения
Вы не можете голосовать в опросах
Вы не можете прикреплять файлы к сообщениям
Вы можете скачивать файлы