Кряключения Дональда Дака: Рождество с Микки Маусом / Duck the Halls: A Mickey Mouse Christmas Special (Алонсо Рамирез Рамос / Alonso Ramirez Ramos, Дэвид Вассон / David Wasson) [2016, приключения, мультфильм, DVB-AVC] Dub

Ответить на тему
Статистика раздачи
Размер:  386 MB   |    Зарегистрирован:  1 месяц 20 дней   |    Скачан:  0 раз

Полного источника не было: Никогда

 
   
 
 
Автор Сообщение

star21 ®

Пол: Не указан

Стаж: 1 год 11 месяцев

Сообщений: 355767

Создавать темы 30-Авг-2017 01:11

[Цитировать]

Кряключения Дональда Дака: Рождество с Микки Маусом / Duck the Halls: A Mickey Mouse Christmas Special Год выпуска: 2016
Страна: США, Disney Television Animation, Mercury Filmworks
Жанр: приключения, мультфильм
Продолжительность: 00:20:38
Перевод: Профессиональный (дублированный)Режиссёр: Алонсо Рамирез Рамос / Alonso Ramirez Ramos, Дэвид Вассон / David WassonОписание: Дональд Дак и Дэйзи практически ничего не знают о Рождестве, ведь каждую зиму они улетают на юг. Но на этот раз пернатая парочка решает изменить свои планы и принять участие во всех зимних забавах и подготовке к празднику. Гидом по рождественским развлечениям для Дональда и Дэйзи становятся их лучшие друзья - Микки Маус, Минни, Гуфи, Плуто и другие знаменитые персонажи. Они с радостью помогают Дональду подготовиться к появлению Санты и насладиться каждой минутой предпраздничной суеты!Доп. информация:[imdb]http://www.imdb.com/title/tt6313638[/imdb]Релиз группы: Семпл: https://yadi.sk/i/r7d6FG9S36A4TQКачество видео: DVB
Формат видео: MPEG-TSВидео: MPEG4 Video (H264), 720x576@785x576 (4:3), анаморф, 25 fps, 2300 kbps
Аудио: MPEG Audio, 2 сh, 48 kHz, 192 kbps

MediaInfo

D:\Кряключения Дональда Дака. Рождество с Микки Маусом. (2016)_DVB by SLuMeP.ts
General #1
ID : 1 (0x1)
Complete name : D:\Кряключения Дональда Дака. Рождество с Микки Маусом. (2016)_DVB by SLuMeP.ts
Format : MPEG-TS
File size : 386 MiB
Duration : 20mn 38s
Overall bit rate mode : Variable
Overall bit rate : 2 618 Kbps Video #2544
ID : 2544 (0x9F0)
Menu ID : 544 (0x220)
Format : AVC
Format/Info : Advanced Video Codec
Format profile : Main@L3.0
Format settings, CABAC : Yes
Format settings, ReFrames : 4 frames
Format settings, GOP : M=8, N=24
Codec ID : 27
Duration : 20mn 38s
Bit rate : 2 295 Kbps
Width : 720 pixels
Height : 576 pixels
Display aspect ratio : 4:3
Frame rate : 25.000 fps
Standard : PAL
Color space : YUV
Chroma subsampling : 4:2:0
Bit depth : 8 bits
Scan type : MBAFF
Scan order : Top Field First
Bits/(Pixel*Frame) : 0.221
Stream size : 339 MiB (88%)
Color primaries : BT.601 PAL
Transfer characteristics : BT.470 System B, BT.470 System G
Matrix coefficients : BT.601 Audio #3544
ID : 3544 (0xDD8)
Menu ID : 544 (0x220)
Format : MPEG Audio
Format version : Version 1
Format profile : Layer 2
Codec ID : 3
Duration : 20mn 38s
Bit rate mode : Constant
Bit rate : 192 Kbps
Channel(s) : 2 channels
Sampling rate : 48.0 KHz
Compression mode : Lossy
Stream size : 28.3 MiB (7%)
Language : Russian

Скриншоты


Для скачки контента: [Установить программу-клиент] и кликнуть по - Скачать

[asmlocator.ru].t366770.torrent 
Торрент: Зарегистрирован [ 2017-08-30 01:10 ] · 038164ED61A5205CCB9032C41DFF01A887B6A58C

Скачать .torrent

Скачать

16 KB

Статус: проверено
Скачан: 0 раз
Размер: 386 MB
terms.php
[Профиль] [ЛС]
Показать сообщения:    
Ответить на тему

Текущее время: 19-Окт 07:09

Часовой пояс: UTC ± 0



Вы не можете начинать темы
Вы не можете отвечать на сообщения
Вы не можете редактировать свои сообщения
Вы не можете удалять свои сообщения
Вы не можете голосовать в опросах
Вы не можете прикреплять файлы к сообщениям
Вы можете скачивать файлы