Paul McCartney. - The Space Within US A Concert Film. [2006, Rock, HDRip]

Ответить на тему
Статистика раздачи
Размер:  1,46 GB   |    Зарегистрирован:  3 месяца 15 дней   |    Скачан:  0 раз

Полного источника не было: Никогда

 
   
 
 
Автор Сообщение

star21 ®

Пол: Не указан

Стаж: 2 года 1 месяц

Сообщений: 354215

Создавать темы 29-Авг-2017 20:00

[Цитировать]

Paul McCartney. - The Space Within US A Concert Film. Жанр: Rock
Продолжительность: 01:55:47.
Год выпуска: 2006
Описание: "The Space Within Us" -- фильм - концерт, основан на видеозаписях, сделанных во время американского тура Пола Маккартни осенью 2005 года. Фильм выпущен совместно с A&E Home Video, которые участвовали в работе над "Paul McCartney In Red Square" (завоевавшим премию Emmy-2005)
Paul McCartney, Rusty Anderson (guitarist), Abe Laboriel (drummer), Brian Ray (guitarist), Paul Wickens (keyboardist)
(материалом поделился mcRomash )Треклист:
01. Intro
02. Magical Mystery Tour
03. Flaming Pie
04. Let Me Roll It
05. Drive My Car
06. Till There Was You
07. I'll Get You
08. Eleanor Rigby
09. Maybe I'm Amazed
10. Got to Get You into My Life
11. Fine Line
12. I Will
13. I'll Follow the Sun
14. Good Day Sunshine
15. For No One
16. Hey Jude
17. Fixing a Hole
18. Penny Lane
19. Too Many People / She Came in Through the Bathroom Window
20. Let It Be
21. English Tea
22. I've Got a Feeling
23. Follow Me
24. Jenny Wren
25. Helter Skelter
26. Yesterday
27. Get Back
28. Please Please Me
29. Credits
Доп. информация: по видео

скрытый текст

File: Paul.McCartney.The.Space.Within 2005.avi
Filesize: 1493.51 Mb ( 1 566 061 080 bytes )
Play length: 01:55:47.017 (166520 frames)
Subtitles: Not Present
Video: 656x368 (1.78:1), 23.970 fps, XviD build 63 ~1604 kbps avg, 0.28 bit/pixel
Audio: 48 kHz, AC3 Dolby Digital, 2/0 (L,R) ch, ~192.00 kbps avg
Полное имя Paul.McCartney.The.Space.Within 2005.avi
Формат : AVI
Формат/Информация : Audio Video Interleave
Профиль формата : OpenDML
Размер файла : 1,46 Гбайт
Продолжительность : 1 ч. 55 м.
Общий поток : 1803 Кбит/сек
Программа кодирования : Lavf51.12.1Видео
Идентификатор : 0
Формат : xvid
Идентификатор кодека : xvid
Продолжительность : 1 ч. 55 м.
Битрейт : 1599 Кбит/сек
Ширина : 656 пикселей
Высота : 368 пикселей
Соотношение сторон : 16:9
Частота кадров : 23,976 кадра/сек
Бит/(Пиксели*Кадры) : 0.276
Размер потока : 1,29 Гбайт (89%)Аудио
Идентификатор : 1
Формат : AC-3
Формат/Информация : Audio Coding 3
Расширение режима : CM (complete main)
Параметр Endianness формата : Big
Идентификатор кодека : 2000
Продолжительность : 1 ч. 55 м.
Вид битрейта : Постоянный
Битрейт : 192 Кбит/сек
Каналы : 2 канала
Расположение каналов : Front: L R
Частота : 48,0 КГц
Битовая глубина : 16 бит
Метод сжатия : С потерями
Размер потока : 159 Мбайт (11%)
Выравнивание : Соединение по промежуткам
Продолжительность промежутка : 32 мс. (0,77 видеокадр)
Время предзагрузки промежутка : 32 мс.
Источник: собственный рип
Cсылка http://rutracker.org/forum/viewtopic.php?t=1650252
Качество: HDRip
Контейнер: AVI
Видео кодек: XviD
Аудио кодек: AC3
Видео: 656x368 (1.78:1), 23.970 fps, XviD build 63 ~1604 kbps avg, 0.28 bit/pixel
Аудио: 48 kHz, AC3 Dolby Digital, 2/0 (L,R) ch, ~192.00 kbps avg

Скриншоты

Мои другие раздачи 1 - http://rutracker.org/forum/tracker.php?rid=14861751
Мои другие раздачи 2- http://rutracker.org/forum/tracker.php?rid=26740408Приятного просмотра!

Для скачки контента: [Установить программу-клиент] и кликнуть по - Скачать

[asmlocator.ru].t366589.torrent 
Торрент: Зарегистрирован [ 2017-08-29 20:00 ] · 0F4252E5DFF9AE4F10E7F77A516A51441198CF4E

Скачать .torrent

Скачать

15 KB

Статус: проверено
Скачан: 0 раз
Размер: 1,46 GB
terms.php
[Профиль] [ЛС]
Показать сообщения:    
Ответить на тему

Текущее время: 14-Дек 13:15

Часовой пояс: UTC ± 0



Вы не можете начинать темы
Вы не можете отвечать на сообщения
Вы не можете редактировать свои сообщения
Вы не можете удалять свои сообщения
Вы не можете голосовать в опросах
Вы не можете прикреплять файлы к сообщениям
Вы можете скачивать файлы