Милый образ / Vestige / Omokage (Хэйноскэ Госё / Heinosuke Gosho) [1948, Япония, драма, DVDRip] Original Jap + Sub Rus, Eng

Ответить на тему
Статистика раздачи
Размер:  1,09 GB   |    Зарегистрирован:  3 месяца 13 дней   |    Скачан:  0 раз

Полного источника не было: Никогда

 
   
 
 
Автор Сообщение

star21 ®

Пол: Не указан

Стаж: 2 года 1 месяц

Сообщений: 354226

Создавать темы 29-Авг-2017 20:00

[Цитировать]

Милый образ / Vestige / Omokage / 面影Страна: Япония
Жанр: драма
Год выпуска: 1948
Продолжительность: 01:35:50Перевод 1: Субтитры русские - дед_сто_лет©
Перевод 2: Субтитры английские - Abe Sahoko & corvusalbus
Оригинальная аудиодорожка: японскийРежиссер: Хэйноскэ Госё / Heinosuke GoshoВ ролях: Итиро РЮДЗАКИ, Итиро СУГАЙ, Юрико ХАМАДА, Сэцуко ВАКАЯМА, Сусуму ООКУБО, Ранко АКАГИ, Тисю РЮОписание: Профессор Инагаки приглашает своего ученика Кавасаки провести отпуск в его загородном доме. Жена Кавасаки погибла во время войны, и он предпочитает холостую жизнь. Но все меняется после того, как он впервые видит юную жену профессора.© > > > > > > > [imdb]http://www.imdb.com/title/tt0040663[/imdb]Качество видео: DVDRip
Формат видео: AVIВидео: 640x480 (1.33:1), 23.976 fps, XviD build 50 ~1432 kbps avg, 0.19 bit/pixel
Аудио: 48 kHz, MPEG Layer 3, 2 ch, ~192.00 kbps avg
Формат субтитров: softsub (SRT)
Доп. информация о субтитрах: дед_сто_лет

Пример субтитров

415
00:32:41,793 --> 00:32:43,033
Идемте ещё!416
00:32:43,528 --> 00:32:46,975
Устроим дальний заплыв.
Уплывем так далеко, как сможем.417
00:32:47,065 --> 00:32:49,238
Ты только что говорила, что
плаваешь не очень хорошо.418
00:32:49,734 --> 00:32:51,179
Как вы можете такое говорить!419
00:32:51,269 --> 00:32:54,045
- Но это же, правда, Каору?
- Такаси!420
00:32:54,773 --> 00:32:58,050
- Тётя, пойдем плавать!
- И вы, Кавасаки-сан! - Хорошо.421
00:33:00,078 --> 00:33:02,183
- Такаси!
- Сестра!422
00:33:53,532 --> 00:33:57,810
- Мы сможем сегодня закончить проект?
- Да, мы же запланировали.423
00:34:01,440 --> 00:34:03,545
- Кавасаки-сан...
- Да.424
00:34:03,842 --> 00:34:05,446
Заходите.425
00:34:06,645 --> 00:34:08,625
Вы, наверное, устали.426
00:34:09,080 --> 00:34:11,617
- Не знаю, понравится ли вам...
- Спасибо.427
00:34:12,451 --> 00:34:16,490
- Сэнсэй ещё не вернулся?
- Думаю, он скоро будет...428
00:34:16,855 --> 00:34:19,267
Он, конечно же, помнит.429
00:34:20,292 --> 00:34:22,067
Я тоже так думаю.430
00:34:26,665 --> 00:34:29,009
Какая у вас годовщина?431
00:34:29,201 --> 00:34:30,737
Пятая.432
00:34:31,369 --> 00:34:33,508
- Я уже старая.
- Нет, неправда.433
00:34:34,139 --> 00:34:35,846
Вы ещё молодая.434
00:34:39,744 --> 00:34:41,917
Вы, ведь, родились в Токио?435
00:34:42,047 --> 00:34:44,357
Да, в Коэндзи в районе Сугинами.

MediaInfo

General
Complete name : C:\Torrents\[ASIA]\Omokage(1948)Heinosuke.Gosho\Omokage(1948)Heinosuke.Gosho.avi
Format : AVI
Format/Info : Audio Video Interleave
File size : 1.09 GiB
Duration : 1h 35mn
Overall bit rate : 1 632 Kbps
Writing application : VirtualDubMod 1.5.4.1 (build 2178/release)
Writing library : VirtualDubMod build 2178/releaseVideo
ID : 0
Format : MPEG-4 Visual
Format profile : Advanced Simple@L5
Format settings, BVOP : No
Format settings, QPel : No
Format settings, GMC : No warppoints
Format settings, Matrix : Custom
Codec ID : XVID
Codec ID/Hint : XviD
Duration : 1h 35mn
Bit rate : 1 433 Kbps
Width : 640 pixels
Height : 480 pixels
Display aspect ratio : 4:3
Frame rate : 23.976 fps
Color space : YUV
Chroma subsampling : 4:2:0
Bit depth : 8 bits
Scan type : Progressive
Compression mode : Lossy
Bits/(Pixel*Frame) : 0.195
Stream size : 982 MiB (88%)
Writing library : XviD 1.2.1 (UTC 2008-12-04)Audio
ID : 1
Format : MPEG Audio
Format version : Version 1
Format profile : Layer 3
Mode : Joint stereo
Mode extension : MS Stereo
Codec ID : 55
Codec ID/Hint : MP3
Duration : 1h 35mn
Bit rate mode : Constant
Bit rate : 192 Kbps
Channel(s) : 2 channels
Sampling rate : 48.0 KHz
Compression mode : Lossy
Stream size : 132 MiB (12%)
Alignment : Aligned on interleaves
Interleave, duration : 83 ms (2.00 video frames)
Interleave, preload duration : 504 ms
Writing library : LAME3.98r
Encoding settings : -m j -V 4 -q 2 -lowpass 18.6 -b 192
Language : Japanese

Скриншот c названием фильма

Скриншоты

Для скачки контента: [Установить программу-клиент] и кликнуть по - Скачать

[asmlocator.ru].t366582.torrent 
Торрент: Зарегистрирован [ 2017-08-29 20:00 ] · B2F8BA05260FF483BC4172FD13BDC22F0D77FFF6

Скачать .torrent

Скачать

12 KB

Статус: проверено
Скачан: 0 раз
Размер: 1,09 GB
terms.php
[Профиль] [ЛС]
Показать сообщения:    
Ответить на тему

Текущее время: 12-Дек 18:05

Часовой пояс: UTC ± 0



Вы не можете начинать темы
Вы не можете отвечать на сообщения
Вы не можете редактировать свои сообщения
Вы не можете удалять свои сообщения
Вы не можете голосовать в опросах
Вы не можете прикреплять файлы к сообщениям
Вы можете скачивать файлы