Меня зовут Дэвид / I Am David (Пол Фиг / Paul Feig) [2003, США, драма, WEB-DL 1080p] MVO + Sub Eng + Original Eng

Ответить на тему
Статистика раздачи
Размер:  9,46 GB   |    Зарегистрирован:  1 месяц 20 дней   |    Скачан:  0 раз

Полного источника не было: Никогда

 
   
 
 
Автор Сообщение

star21 ®

Пол: Не указан

Стаж: 1 год 11 месяцев

Сообщений: 355767

Создавать темы 29-Авг-2017 15:50

[Цитировать]

Меня зовут Дэвид / I Am David Страна: США
Студия: Walden Media
Жанр: драма
Год выпуска: 2003
Продолжительность: 01:31:43Перевод: Профессиональный (многоголосый закадровый)
Субтитры: русские, английские (полные)
Оригинальная аудиодорожка: английскийРежиссер: Пол Фиг / Paul FeigВ ролях: Бэн Тиббер, Джеймс Кэвизел, Джоан Плаурайт, Христо Шопов, Сильвия Де Сантис, Пако Реконти, Роберто Эттиэс, Франческо Де Вито, Пол Фиг, Люси РасселлОписание: С самого раннего детства Дэвид учился ненавидеть людей и не доверять им. Да и как можно вести себя по-другому, находясь в лагерных застенках?Когда не знаешь, на кого можно положиться, когда надсмотрщики могут превратить твою жизнь в каждодневный кошмар. Однако пути судьбы неисповедимы, и Дэвиду предоставляется шанс обрести свободу.И вот он совсем один, в огромном, не знакомом ему доселе мире. С собой у мальчика только буханка хлеба и компас, а также письмо, которое ему нужно доставить в Копенгаген — город, где он сможет, наконец, найти людей, которые позаботятся о нем.Сэмпл: http://sendfile.su/1358202Тип релиза: WEB-DL 1080p
Контейнер: MKVВидео: h264, 1920x1080, 16:9, 13700 kbps, 23.976 fps
Аудио: русский, AC3, 6 ch, 48.0 kHZ, 384 kbps
Аудио 2: английский, AC3, 6 ch, 48.0 kHZ, 640 kbps
Формат субтитров: softsub (SRT)

MediaInfo

General
Unique ID : 185281926705729257525593905633237471839 (0x8B640046C13A4DE4837A4A6182ED125F)
Complete name : D:\Downloads\I.Am.David.2003.WEB-DL.1080p.mkv
Format : Matroska
Format version : Version 4 / Version 2
File size : 9.46 GiB
Duration : 1 h 31 min
Overall bit rate mode : Variable
Overall bit rate : 14.8 Mb/s
Encoded date : UTC 2017-08-29 09:52:57
Writing application : mkvmerge v15.0.0 ('Duel with the Devil') 64-bit
Writing library : libebml v1.3.5 + libmatroska v1.4.5Video
ID : 1
Format : AVC
Format/Info : Advanced Video Codec
Format profile : High@L4
Format settings, CABAC : Yes
Format settings, ReFrames : 4 frames
Codec ID : V_MPEG4/ISO/AVC
Duration : 1 h 31 min
Bit rate mode : Variable
Bit rate : 13.7 Mb/s
Maximum bit rate : 15.0 Mb/s
Width : 1 920 pixels
Height : 1 080 pixels
Display aspect ratio : 16:9
Frame rate mode : Constant
Frame rate : 23.976 (24000/1001) FPS
Color space : YUV
Chroma subsampling : 4:2:0
Bit depth : 8 bits
Scan type : Progressive
Bits/(Pixel*Frame) : 0.276
Stream size : 8.80 GiB (93%)
Default : Yes
Forced : No
Color range : Limited
Color primaries : BT.709
Transfer characteristics : BT.709
Matrix coefficients : BT.709Audio #1
ID : 2
Format : AC-3
Format/Info : Audio Coding 3
Format settings, Endianness : Big
Codec ID : A_AC3
Duration : 1 h 31 min
Bit rate mode : Constant
Bit rate : 384 kb/s
Channel(s) : 6 channels
Channel positions : Front: L C R, Side: L R, LFE
Sampling rate : 48.0 kHz
Frame rate : 31.250 FPS (1536 spf)
Bit depth : 16 bits
Compression mode : Lossy
Delay relative to video : 24 ms
Stream size : 252 MiB (3%)
Language : Russian
Service kind : Complete Main
Default : Yes
Forced : NoAudio #2
ID : 3
Format : E-AC-3
Format/Info : Enhanced Audio Coding 3
Format settings, Endianness : Big
Codec ID : A_EAC3
Duration : 1 h 31 min
Bit rate mode : Constant
Bit rate : 640 kb/s
Channel(s) : 6 channels
Channel positions : Front: L C R, Side: L R, LFE
Sampling rate : 48.0 kHz
Frame rate : 187.500 FPS (256 spf)
Compression mode : Lossy
Stream size : 420 MiB (4%)
Language : English
Service kind : Complete Main
Default : No
Forced : NoText #1
ID : 4
Format : UTF-8
Codec ID : S_TEXT/UTF8
Codec ID/Info : UTF-8 Plain Text
Duration : 1 h 26 min
Bit rate : 63 b/s
Count of elements : 519
Stream size : 40.5 KiB (0%)
Language : Russian
Default : No
Forced : NoText #2
ID : 5
Format : UTF-8
Codec ID : S_TEXT/UTF8
Codec ID/Info : UTF-8 Plain Text
Duration : 1 h 26 min
Bit rate : 39 b/s
Count of elements : 918
Stream size : 25.2 KiB (0%)
Language : English
Default : No
Forced : No

Скриншоты

Для скачки контента: [Установить программу-клиент] и кликнуть по - Скачать

[asmlocator.ru].t366559.torrent 
Торрент: Зарегистрирован [ 2017-08-29 15:50 ] · D5E83B5FBC10EF9D675C1C6ABB0C17980F77393B

Скачать .torrent

Скачать

24 KB

Статус: проверено
Скачан: 0 раз
Размер: 9,46 GB
terms.php
[Профиль] [ЛС]
Показать сообщения:    
Ответить на тему

Текущее время: 19-Окт 07:14

Часовой пояс: UTC ± 0



Вы не можете начинать темы
Вы не можете отвечать на сообщения
Вы не можете редактировать свои сообщения
Вы не можете удалять свои сообщения
Вы не можете голосовать в опросах
Вы не можете прикреплять файлы к сообщениям
Вы можете скачивать файлы