Почти ровесники (Татьяна Пименова) [1984, мелодрама, семейное кино, DVB]

Ответить на тему
Статистика раздачи
Размер:  1,29 GB   |    Зарегистрирован:  1 месяц 20 дней   |    Скачан:  0 раз

Полного источника не было: 10 дней

 
   
 
 
Автор Сообщение

star21 ®

Пол: Не указан

Стаж: 1 год 11 месяцев

Сообщений: 355767

Создавать темы 29-Авг-2017 11:40

[Цитировать]

Почти ровесники
29.08.17 торрент файл обновлен, в связи с повторной трансляцией заменена звуковая дорожка
Жанр: мелодрама, семейное кино
Год выпуска: 1984
Продолжительность: 01:09:58Режиссёр: Татьяна ПименоваВ ролях: Михаил Морозов, Елена Новосельская, Юра Жуков, Ваня Именитов, Василий Чернышев, Даша Гальчук, Ольга Дольникова, Люба Виноградова, Владимир Петров, Вероника (Ника) Косенкова, Анна Исайкина, Нелли Витепаш, Любовь Германова, Валентина Клягина, Людмила Дмитриева, Ирина Калиновская, Георгий Склянский, В. Калиновский, Анатолий Борисов, Вадим Элик, Алексей Ясулович, Л. Болховитинов, Ж. Гурьянова, О. Масалова, Геннадий Богданов, Леонид Громов, Олег ФоминОписание: Выпускник педагогического института — учитель литературы Вячеслав Кузьмин — становится классным руководителем и лучшим другом ребят десятого, выпускного, класса...Доп. информация: Запись потока *.ts со спутника HOT BIRD, удаление рекламы программой VideoReDo. Постеры из коллекции советских киноплакатов коллеги tokarevamarina.Качество видео: DVB
Формат видео: MPEG-TSВидео: MPEG Video, 704(768)x576 (4:3), 25,000 кадров/сек, 2299 Кбит/сек
Аудио: MPEG Audio, 48,0 КГц, 192 Кбит/сек, 2 канала

MediaInfo

Общее
Идентификатор : 1 (0x1)
Полное имя : D:\MPG\ПОЧТИ РОВЕСНИКИ (Nashe Kino).ts
Формат : MPEG-TS
Размер файла : 1,29 Гбайт
Продолжительность : 1 ч. 10 м.
Режим общего битрейта : Переменный
Общий поток : 2623 Кбит/сек
Максимальный общий битрейт : 35,5 Мбит/секВидео
Идентификатор : 4113 (0x1011)
Идентификатор меню : 1 (0x1)
Формат : MPEG Video
Версия формата : Version 2
Профиль формата : Main@Main
Параметр BVOP формата : Да
Параметр матрицы формата : Выборочная
Параметр GOP формата : Variable
Структура изображения : Frame
Идентификатор кодека : 2
Продолжительность : 1 ч. 9 м.
Вид битрейта : Переменный
Битрейт : 2299 Кбит/сек
Максимальный битрейт : 15,0 Мбит/сек
Ширина : 704 пикселя
Высота : 576 пикселей
Соотношение сторон : 4:3
Частота кадров : 25,000 кадров/сек
Стандарт вещания : PAL
Цветовое пространство : YUV
Субдискретизация насыщенности : 4:2:0
Битовая глубина : 8 бит
Тип развёртки : Чересстрочная
Порядок развёртки : Верхнее поле первое
Метод сжатия : С потерями
Бит/(Пиксели*Кадры) : 0.227
Временной код первого кадра : 00:00:00:00
Оригинал временного кода : Group of pictures header
GOP, открыто/закрыто : Открыто
GOP, открыто/закрыто на первом кадре : Закрыто
Размер потока : 1,12 Гбайт (87%)Аудио
Идентификатор : 4352 (0x1100)
Идентификатор меню : 1 (0x1)
Формат : MPEG Audio
Версия формата : Version 1
Профиль формата : Layer 2
Идентификатор кодека : 4
Продолжительность : 1 ч. 10 м.
Вид битрейта : Постоянный
Битрейт : 192 Кбит/сек
Каналы : 2 канала
Частота : 48,0 КГц
Метод сжатия : С потерями
Размер потока : 96,5 Мбайт (7%)
Язык : Russian

Ещё постер

Для скачки контента: [Установить программу-клиент] и кликнуть по - Скачать

[asmlocator.ru].t366534.torrent 
Торрент: Зарегистрирован [ 2017-08-29 11:40 ] · FFAD9FE0A4E61A2F89C9FC79C4A937BD82A1A888

Скачать .torrent

Скачать

13 KB

Статус: проверено
Скачан: 0 раз
Размер: 1,29 GB
terms.php
[Профиль] [ЛС]
Показать сообщения:    
Ответить на тему

Текущее время: 19-Окт 07:21

Часовой пояс: UTC ± 0



Вы не можете начинать темы
Вы не можете отвечать на сообщения
Вы не можете редактировать свои сообщения
Вы не можете удалять свои сообщения
Вы не можете голосовать в опросах
Вы не можете прикреплять файлы к сообщениям
Вы можете скачивать файлы