Танковый Биатлон 2017.08.12 [2017, Военно-Спортивное Шоу, HDTV 1080i]

Ответить на тему
Статистика раздачи
Размер:  3,69 GB   |    Зарегистрирован:  2 месяца 6 дней   |    Скачан:  0 раз

Полного источника не было: Никогда

 
   
 
 
Автор Сообщение

star21 ®

Пол: Не указан

Стаж: 1 год 11 месяцев

Сообщений: 355767

Создавать темы 12-Авг-2017 20:20

[Цитировать]

Танковый Биатлон 2017.08.12 Год выпуска: 2017
Страна: Россия
Студия: Россия 1 HD | ООО "Телеиндустрия"
Жанр: Военно-Спортивное Шоу
Продолжительность: 01:14:00 серия
Перевод: Не требуется
Ведущий: Дмитрий ГуберниевОписание: Это шоу можно назвать чемпионатом мира по танковому биатлону. Беспрецедентные учения-соревнования, идея организации которых принадлежит министру обороны России Сергею Шойгу, привлекли внимание всего мира. Третий сезон будет еще более представительным. Свое участие в "Танковом биатлоне" подтвердили 13 стран: Россия, Ангола, Армения, Венесуэла, Индия, Казахстан, Киргизия, Китай, Кувейт, Монголия, Никарагуа, Сербия, Таджикистан.Тип релиза: HDTV 1080i
Контейнер: TSВидео: H264; 1920x1080 (16:9); 25.000 fps; ~6 541 kb/s
Аудио: MPEG Audio Version 1 Layer 2, 48000Hz, 2 channels stereo 192 Кбит/сек

MediaInfo

GeneralID                             : 1 (0x1)Complete name                  : F:\111---Смеяться разрешается\Танковый Биатлон 2017.08.12.tsFormat                         : MPEG-TSFile size                      : 3.69 GiBDuration                       : 1 h 14 minOverall bit rate mode          : VariableOverall bit rate               : 7 085 kb/sVideoID                             : 2292 (0x8F4)Menu ID                        : 2291 (0x8F3)Format                         : AVCFormat/Info                    : Advanced Video CodecFormat profile                 : High@L4Format settings, CABAC         : YesFormat settings, ReFrames      : 4 framesCodec ID                       : 27Duration                       : 1 h 14 minBit rate                       : 6 541 kb/sWidth                          : 1 920 pixelsHeight                         : 1 080 pixelsDisplay aspect ratio           : 16:9Frame rate                     : 25.000 FPSStandard                       : ComponentColor space                    : YUVChroma subsampling             : 4:2:0Bit depth                      : 8 bitsScan type                      : InterlacedScan type, store method        : Separated fieldsScan order                     : Top Field FirstBits/(Pixel*Frame)             : 0.126Stream size                    : 3.41 GiB (92%)Color range                    : LimitedColor primaries                : BT.709Transfer characteristics       : BT.709Matrix coefficients            : BT.709AudioID                             : 2295 (0x8F7)Menu ID                        : 2291 (0x8F3)Format                         : MPEG AudioFormat version                 : Version 1Format profile                 : Layer 2Codec ID                       : 3Duration                       : 1 h 14 minBit rate mode                  : ConstantBit rate                       : 192 kb/sChannel(s)                     : 2 channelsSampling rate                  : 48.0 kHzCompression mode               : LossyStream size                    : 102 MiB (3%)Language                       : Russian

Скриншоты

Для скачки контента: [Установить программу-клиент] и кликнуть по - Скачать

[asmlocator.ru].t364446.torrent 
Торрент: Зарегистрирован [ 2017-08-12 20:20 ] · 698E260076B93BD9D2273BF8A174FC9C389BBA6C

Скачать .torrent

Скачать

19 KB

Статус: проверено
Скачан: 0 раз
Размер: 3,69 GB
terms.php
[Профиль] [ЛС]
Показать сообщения:    
Ответить на тему

Текущее время: 19-Окт 12:33

Часовой пояс: UTC ± 0



Вы не можете начинать темы
Вы не можете отвечать на сообщения
Вы не можете редактировать свои сообщения
Вы не можете удалять свои сообщения
Вы не можете голосовать в опросах
Вы не можете прикреплять файлы к сообщениям
Вы можете скачивать файлы