Покушение на ГОЭЛРО (Николай Гусаров) [1986, детектив, DVDRip-AVC]

Ответить на тему
Статистика раздачи
Размер:  3,27 GB   |    Зарегистрирован:  6 дней   |    Скачан:  0 раз

Полного источника не было: Никогда

 
   
 
 
Автор Сообщение

star21 ®

Пол: Не указан

Стаж: 1 год 9 месяцев

Сообщений: 355778

Создавать темы 12-Авг-2017 18:15

[Цитировать]

Покушение на ГОЭЛРО (3 серии) Жанр: детектив
Год выпуска: 1986
Продолжительность: 03:32:44 (01:07:02 + 01:14:50 + 01:10:52)Режиссёр: Николай ГусаровВ ролях:
Юрий Назаров, Игорь Ледогоров, Александр Михайлов, Родион Нахапетов, Вера Глаголева, Анна Каменкова, Любовь Полищук, Виктор Мамаев, Светлана Рябова, Георгий Юматов, Валерий Баринов, Алексей Булдаков, Гедиминас Гирдвайнис, Петр Зайченко, Валерий Захарьев, Альгимантас Масюлис, Геннадий ЮхтинОписание:
По мотивам одноименной повести А. Полякова. Уральский город Краснотальск, 1932 год. На электростанции совершена диверсия - из строя выведена турбина. В Москве руководством ОГПУ получена секретная шифрограмма о диверсионных планах немецкой разведки против СССР. Главная цель – советские электростанции, особое внимание уделяется Уралу и строящемуся Днепрогэсу. В Краснотальск направлен сотрудник ОГПУ Ларцев.Исходник | Сэмпл | КинопоискКачество видео: DVDRip-AVC, спасибо pretenders за диск.
Формат видео: MKV03:32:44Видео: x264: (High@L4.1); 704@744x574, Display aspect ratio 1.296:1, 25.000 fps, 1986 - 2029 Kbps
Аудио: Оригинал: AC-3; 16 bits 48 Khz; 2.0ch 192 Kbps; CBR

Дополнительная информация

Мистерия уместила все серии на одной девятке, закодировав фильм в суровый vbr, противопоказанный мпег2 двд видео. Как следствие, все темные, полузатемненные эпизоды фильма смотрятся неважно из-за серьезного дефицита битрейта: ушли в габаритные блоки, потеки.
В рипе блоки прикрыты дебандером.http://screenshotcomparison.com/comparison/114394 Ну, и попадаются дефекты...

MediaInfo

1 серия

avs [info]: 704x574p 12/11 @ 25/1 fps (cfr)
x264 [info]: using SAR=12/11
x264 [info]: profile High, level 4.1
x264 [info]: frame I:510 Avg QP:16.33 size: 46006
x264 [info]: frame P:18957 Avg QP:18.06 size: 22926
x264 [info]: frame B:81096 Avg QP:20.04 size: 6668
x264 [info]: consecutive B-frames: 0.7% 0.7% 3.2% 12.5% 13.4% 65.1% 3.3% 0.7% 0.4% 0.1%
x264 [info]: ref P L0: 33.9% 10.3% 16.2% 7.1% 6.4% 4.6% 4.6% 2.5% 2.6% 2.0% 2.2% 1.7% 1.8% 1.4% 1.6% 1.0%
x264 [info]: ref B L0: 80.8% 7.5% 3.0% 1.8% 1.3% 1.2% 0.9% 0.7% 0.5% 0.6% 0.5% 0.5% 0.4% 0.3% 0.1%
x264 [info]: ref B L1: 97.4% 2.6%
x264 [info]: kb/s:1986.45General
Unique ID : 251881181540794108434013644078730442950 (0xBD7E8D0E0DF6701080AD177B4F0BF8C6)
Complete name : Покушение на ГОЭЛРО.1986.1 серия.mkv
Format : Matroska
Format version : Version 2
File size : 1.02 GiB
Duration : 1 h 7 min
Overall bit rate : 2 180 kb/s
Encoded date : UTC 2017-08-11 13:54:09
Writing application : mkvmerge v7.8.0 ('River Man') 32bit built on Mar 27 2015 16:18:02
Writing library : libebml v1.3.1 + libmatroska v1.4.2Video
ID : 1
Format : AVC
Format/Info : Advanced Video Codec
Format profile : High@L4.1
Format settings, CABAC : Yes
Format settings, ReFrames : 16 frames
Codec ID : V_MPEG4/ISO/AVC
Duration : 1 h 7 min
Bit rate : 1 945 kb/s
Width : 704 pixels
Height : 574 pixels
Display aspect ratio : 4:3
Frame rate mode : Constant
Frame rate : 25.000 FPS
Color space : YUV
Chroma subsampling : 4:2:0
Bit depth : 8 bits
Scan type : Progressive
Bits/(Pixel*Frame) : 0.193
Stream size : 933 MiB (89%)
Title : Покушение на ГОЭЛРО.1986.1 серия
Writing library : x264 core 150 r2833kMod df79067
Encoding settings : cabac=1 / ref=16 / deblock=1:-2:-1 / analyse=0x3:0x133 / me=umh / subme=11 / psy=1 / fade_compensate=0.00 / psy_rd=1.00:0.00 / mixed_ref=1 / me_range=32 / chroma_me=1 / trellis=2 / 8x8dct=1 / cqm=0 / deadzone=21,11 / fast_pskip=0 / chroma_qp_offset=-2 / threads=12 / lookahead_threads=2 / sliced_threads=0 / nr=0 / decimate=0 / interlaced=0 / bluray_compat=0 / constrained_intra=0 / bframes=9 / b_pyramid=2 / b_adapt=2 / b_bias=0 / direct=1 / weightb=1 / open_gop=0 / weightp=2 / keyint=250 / keyint_min=25 / scenecut=40 / intra_refresh=0 / rc_lookahead=60 / rc=crf / mbtree=0 / crf=18.0000 / qcomp=0.60 / qpmin=0 / qpmax=69 / qpstep=4 / vbv_maxrate=62500 / vbv_bufsize=78125 / crf_max=0.0 / nal_hrd=none / filler=0 / ip_ratio=1.40 / pb_ratio=1.30 / aq=3:0.90
Language : Russian
Default : Yes
Forced : No
Color range : Limited
Color primaries : BT.601 PAL
Transfer characteristics : BT.470 System B, BT.470 System G
Matrix coefficients : BT.601Audio
ID : 2
Format : AC-3
Format/Info : Audio Coding 3
Mode extension : CM (complete main)
Format settings, Endianness : Big
Codec ID : A_AC3
Duration : 1 h 7 min
Bit rate mode : Constant
Bit rate : 192 kb/s
Channel(s) : 2 channels
Channel positions : Front: L R
Sampling rate : 48.0 kHz
Frame rate : 31.250 FPS (1536 spf)
Compression mode : Lossy
Stream size : 92.1 MiB (9%)
Title : Оригинал: AC-3; 16 bits 48 Khz; 2.0ch 192 Kbps; CBR
Language : Russian
Default : Yes
Forced : No

2 серия

avs [info]: 704x574p 12/11 @ 25/1 fps (cfr)
x264 [info]: using SAR=12/11
x264 [info]: profile High, level 4.1
x264 [info]: frame I:582 Avg QP:16.46 size: 46959
x264 [info]: frame P:21469 Avg QP:18.35 size: 23363
x264 [info]: frame B:90219 Avg QP:20.19 size: 6570
x264 [info]: consecutive B-frames: 0.8% 1.0% 4.0% 13.0% 12.0% 64.7% 3.3% 0.9% 0.3% 0.1%
x264 [info]: ref P L0: 35.1% 11.5% 15.8% 6.7% 6.0% 4.3% 4.3% 2.4% 2.5% 2.0% 2.1% 1.7% 1.7% 1.4% 1.5% 1.0%
x264 [info]: ref B L0: 83.3% 6.7% 2.5% 1.5% 1.1% 1.0% 0.8% 0.6% 0.5% 0.5% 0.4% 0.4% 0.3% 0.3% 0.1%
x264 [info]: ref B L1: 97.7% 2.3%
x264 [info]: kb/s:1998.16General
Unique ID : 203818143321095730212715647809517646294 (0x9955F250A6E4C0A5816B16F2F8A5F1D6)
Complete name : Покушение на ГОЭЛРО.1986.2 серия.mkv
Format : Matroska
Format version : Version 2
File size : 1.15 GiB
Duration : 1 h 14 min
Overall bit rate : 2 192 kb/s
Encoded date : UTC 2017-08-11 13:56:28
Writing application : mkvmerge v7.8.0 ('River Man') 32bit built on Mar 27 2015 16:18:02
Writing library : libebml v1.3.1 + libmatroska v1.4.2Video
ID : 1
Format : AVC
Format/Info : Advanced Video Codec
Format profile : High@L4.1
Format settings, CABAC : Yes
Format settings, ReFrames : 16 frames
Codec ID : V_MPEG4/ISO/AVC
Duration : 1 h 14 min
Bit rate : 1 956 kb/s
Width : 704 pixels
Height : 574 pixels
Display aspect ratio : 4:3
Frame rate mode : Constant
Frame rate : 25.000 FPS
Color space : YUV
Chroma subsampling : 4:2:0
Bit depth : 8 bits
Scan type : Progressive
Bits/(Pixel*Frame) : 0.194
Stream size : 1.02 GiB (89%)
Title : Покушение на ГОЭЛРО.1986.2 серия
Writing library : x264 core 150 r2833kMod df79067
Encoding settings : cabac=1 / ref=16 / deblock=1:-2:-1 / analyse=0x3:0x133 / me=umh / subme=11 / psy=1 / fade_compensate=0.00 / psy_rd=1.00:0.00 / mixed_ref=1 / me_range=32 / chroma_me=1 / trellis=2 / 8x8dct=1 / cqm=0 / deadzone=21,11 / fast_pskip=0 / chroma_qp_offset=-2 / threads=12 / lookahead_threads=2 / sliced_threads=0 / nr=0 / decimate=0 / interlaced=0 / bluray_compat=0 / constrained_intra=0 / bframes=9 / b_pyramid=2 / b_adapt=2 / b_bias=0 / direct=1 / weightb=1 / open_gop=0 / weightp=2 / keyint=250 / keyint_min=25 / scenecut=40 / intra_refresh=0 / rc_lookahead=60 / rc=crf / mbtree=0 / crf=18.0000 / qcomp=0.60 / qpmin=0 / qpmax=69 / qpstep=4 / vbv_maxrate=62500 / vbv_bufsize=78125 / crf_max=0.0 / nal_hrd=none / filler=0 / ip_ratio=1.40 / pb_ratio=1.30 / aq=3:0.90
Language : Russian
Default : Yes
Forced : No
Color range : Limited
Color primaries : BT.601 PAL
Transfer characteristics : BT.470 System B, BT.470 System G
Matrix coefficients : BT.601Audio
ID : 2
Format : AC-3
Format/Info : Audio Coding 3
Mode extension : CM (complete main)
Format settings, Endianness : Big
Codec ID : A_AC3
Duration : 1 h 14 min
Bit rate mode : Constant
Bit rate : 192 kb/s
Channel(s) : 2 channels
Channel positions : Front: L R
Sampling rate : 48.0 kHz
Frame rate : 31.250 FPS (1536 spf)
Compression mode : Lossy
Stream size : 103 MiB (9%)
Title : Оригинал: AC-3; 16 bits 48 Khz; 2.0ch 192 Kbps; CBR
Language : Russian
Default : Yes
Forced : No

3 серия

avs [info]: 704x574p 12/11 @ 25/1 fps (cfr)
x264 [info]: using SAR=12/11
x264 [info]: profile High, level 4.1
x264 [info]: frame I:563 Avg QP:16.47 size: 46304
x264 [info]: frame P:20117 Avg QP:18.31 size: 23439
x264 [info]: frame B:85634 Avg QP:20.16 size: 6787
x264 [info]: consecutive B-frames: 0.8% 0.7% 3.4% 12.7% 11.3% 66.6% 3.1% 0.8% 0.6% 0.0%
x264 [info]: ref P L0: 34.1% 10.6% 16.2% 6.8% 6.4% 4.5% 4.6% 2.4% 2.6% 2.1% 2.2% 1.7% 1.8% 1.4% 1.6% 1.0%
x264 [info]: ref B L0: 81.4% 7.0% 2.8% 1.7% 1.3% 1.2% 0.9% 0.7% 0.6% 0.6% 0.5% 0.5% 0.4% 0.3% 0.1%
x264 [info]: ref B L1: 97.6% 2.4%
x264 [info]: kb/s:2029.41General
Unique ID : 230618116214901419721111961449086021630 (0xAD7F6EFEAEB37B009D5CAF18A6D36FFE)
Complete name : Покушение на ГОЭЛРО.1986.3 серия.mkv
Format : Matroska
Format version : Version 2
File size : 1.10 GiB
Duration : 1 h 10 min
Overall bit rate : 2 223 kb/s
Encoded date : UTC 2017-08-11 14:00:08
Writing application : mkvmerge v7.8.0 ('River Man') 32bit built on Mar 27 2015 16:18:02
Writing library : libebml v1.3.1 + libmatroska v1.4.2Video
ID : 1
Format : AVC
Format/Info : Advanced Video Codec
Format profile : High@L4.1
Format settings, CABAC : Yes
Format settings, ReFrames : 16 frames
Codec ID : V_MPEG4/ISO/AVC
Duration : 1 h 10 min
Bit rate : 1 987 kb/s
Width : 704 pixels
Height : 574 pixels
Display aspect ratio : 4:3
Frame rate mode : Constant
Frame rate : 25.000 FPS
Color space : YUV
Chroma subsampling : 4:2:0
Bit depth : 8 bits
Scan type : Progressive
Bits/(Pixel*Frame) : 0.197
Stream size : 1 007 MiB (89%)
Title : Покушение на ГОЭЛРО.1986.3 серия
Writing library : x264 core 150 r2833kMod df79067
Encoding settings : cabac=1 / ref=16 / deblock=1:-2:-1 / analyse=0x3:0x133 / me=umh / subme=11 / psy=1 / fade_compensate=0.00 / psy_rd=1.00:0.00 / mixed_ref=1 / me_range=32 / chroma_me=1 / trellis=2 / 8x8dct=1 / cqm=0 / deadzone=21,11 / fast_pskip=0 / chroma_qp_offset=-2 / threads=12 / lookahead_threads=2 / sliced_threads=0 / nr=0 / decimate=0 / interlaced=0 / bluray_compat=0 / constrained_intra=0 / bframes=9 / b_pyramid=2 / b_adapt=2 / b_bias=0 / direct=1 / weightb=1 / open_gop=0 / weightp=2 / keyint=250 / keyint_min=25 / scenecut=40 / intra_refresh=0 / rc_lookahead=60 / rc=crf / mbtree=0 / crf=18.0000 / qcomp=0.60 / qpmin=0 / qpmax=69 / qpstep=4 / vbv_maxrate=62500 / vbv_bufsize=78125 / crf_max=0.0 / nal_hrd=none / filler=0 / ip_ratio=1.40 / pb_ratio=1.30 / aq=3:0.90
Language : Russian
Default : Yes
Forced : No
Color range : Limited
Color primaries : BT.601 PAL
Transfer characteristics : BT.470 System B, BT.470 System G
Matrix coefficients : BT.601Audio
ID : 2
Format : AC-3
Format/Info : Audio Coding 3
Mode extension : CM (complete main)
Format settings, Endianness : Big
Codec ID : A_AC3
Duration : 1 h 10 min
Bit rate mode : Constant
Bit rate : 192 kb/s
Channel(s) : 2 channels
Channel positions : Front: L R
Sampling rate : 48.0 kHz
Frame rate : 31.250 FPS (1536 spf)
Compression mode : Lossy
Stream size : 97.3 MiB (9%)
Title : Оригинал: AC-3; 16 bits 48 Khz; 2.0ch 192 Kbps; CBR
Language : Russian
Default : Yes
Forced : No

Для скачки контента: [Установить программу-клиент] и кликнуть по - Скачать

[asmlocator.ru].t364415.torrent 
Торрент: Зарегистрирован [ 2017-08-12 18:15 ] · A5A1773B574569EFCCFF0D72043A5A6CF4755F5C

Скачать .torrent

Скачать

17 KB

Статус: проверено
Скачан: 0 раз
Размер: 3,27 GB
terms.php
[Профиль] [ЛС]
Показать сообщения:    
Ответить на тему

Текущее время: 19-Авг 07:19

Часовой пояс: UTC ± 0



Вы не можете начинать темы
Вы не можете отвечать на сообщения
Вы не можете редактировать свои сообщения
Вы не можете удалять свои сообщения
Вы не можете голосовать в опросах
Вы не можете прикреплять файлы к сообщениям
Вы можете скачивать файлы