VA Top of the Pops - January 1984 (BBC) [2017, Pop, Rock, Disco, SATRip]

Ответить на тему
Статистика раздачи
Размер:  1,96 GB   |    Зарегистрирован:  4 месяца   |    Скачан:  0 раз

Полного источника не было: Никогда

 
   
 
 
Автор Сообщение

star21 ®

Пол: Не указан

Стаж: 2 года 1 месяц

Сообщений: 354226

Создавать темы 12-Авг-2017 14:05

[Цитировать]

VA Top of the Pops - January 1984 (BBC) Страна: VA
Жанр: Pop, Rock, Disco
Продолжительность: 01:46:55
Год выпуска: 2017
http://www.bbc.co.uk/programmes/b00704hg/broadcasts/1984/01
Источник: собственный рипКачество: SATRip
Контейнер: MKV
Видео кодек: H.264
Аудио кодек: AC3
Видео: MPEG4 Video (H264) 720x540 2500 kbps 25 fps
Аудио: AC3 128kbps 48kHz 2chОписание:
Top of the Pops (TOTP) — музыкальная программа британского телевидения, выходившая на BBC и транслировавшаяся во многих странах мира. TOTP, своего рода телеверсия национального хит-парада выходила еженедельно с 1 января 1964 года по 30 июля 2006 года. Несмотря на то, что шоу официально закрыто, оно продолжает существовать в рождественской версии.

Треклист

Top of the Pops (5th January 1984)
Frankie Goes To Hollywood – Relax
Rod Stewart – Sweet Surrender (promo)
(1967-1973 clips)
Status Quo – Marguerita Time
(1970-1982 clips)
Frank Kelly – Christmas Countdown
(Top 10 clips)
Slade – My Oh My
The Flying Pickets – Only You (promo)
Kool & The Gang – Straight Ahead (credits)Top of the Pops (12th January 1984)
The Icicle Works – Love Is A Wonderful Colour
Howard Jones – What Is Love? (promo)
Shakin' Stevens & Bonnie Tyler – A Rockin' Good Way
Roland Rat Superstar – Rat Rapping (Brilliant Isn't It?) (promo)
Snowy White – Bird Of Paradise
Lionel Richie – Running With The Night (promo)
Joe Fagin – That's Living Alright
Paul McCartney – Pipes Of Peace (promo)
Billy Joel – Tell Her About It (credits)Top of the Pops (19th January 1984)
Whitesnake – Give Me More Time
Big Country – Wonderland (promo)
Fiction Factory – (Feels Like) Heaven
China Crisis – Wishful Thinking
Gloria Gaynor – I Am What I Am
John Lennon – Nobody Told Me (promo)
Paul McCartney – Pipes Of Peace (promo)
The Police – King Of Pain (credits)

MediaInfo

Format : Matroska
Format version : Version 4 / Version 2
File size : 1.96 GiB
Duration : 1 h 46 min
Overall bit rate mode : Variable
Overall bit rate : 2 630 kb/s
Encoded date : UTC 2017-08-12 11:33:35
Writing application : mkvmerge v14.0.0 ('Flow') 64bit
Writing library : libebml v1.3.4 + libmatroska v1.4.5Video
ID : 1
Format : AVC
Format/Info : Advanced Video Codec
Format profile : High@L4.1
Format settings, CABAC : Yes
Format settings, ReFrames : 3 frames
Codec ID : V_MPEG4/ISO/AVC
Duration : 1 h 46 min
Bit rate mode : Variable
Bit rate : 2 500 kb/s
Maximum bit rate : 14.0 Mb/s
Width : 720 pixels
Height : 540 pixels
Display aspect ratio : 4:3
Frame rate mode : Constant
Frame rate : 25.000 FPS
Color space : YUV
Chroma subsampling : 4:2:0
Bit depth : 8 bits
Scan type : Progressive
Bits/(Pixel*Frame) : 0.257
Stream size : 1.83 GiB (93%)
Writing library : x264 core 148 r2744 b97ae06
Encoding settings : cabac=1 / ref=3 / deblock=1:0:0 / analyse=0x3:0x113 / me=hex / subme=7 / psy=1 / psy_rd=1.00:0.00 / mixed_ref=1 / me_range=16 / chroma_me=1 / trellis=1 / 8x8dct=1 / cqm=0 / deadzone=21,11 / fast_pskip=1 / chroma_qp_offset=-2 / threads=17 / lookahead_threads=2 / sliced_threads=0 / slices=4 / nr=0 / decimate=1 / interlaced=0 / bluray_compat=1 / constrained_intra=0 / bframes=3 / b_pyramid=1 / b_adapt=1 / b_bias=0 / direct=1 / weightb=1 / open_gop=1 / weightp=1 / keyint=250 / keyint_min=1 / scenecut=40 / intra_refresh=0 / rc_lookahead=40 / rc=2pass / mbtree=1 / bitrate=2500 / ratetol=1.0 / qcomp=0.60 / qpmin=0 / qpmax=69 / qpstep=4 / cplxblur=20.0 / qblur=0.5 / vbv_maxrate=14000 / vbv_bufsize=14000 / nal_hrd=vbr / filler=0 / ip_ratio=1.40 / aq=1:1.00
Default : Yes
Forced : No
Color range : Limited
Color primaries : BT.709
Transfer characteristics : BT.709
Matrix coefficients : BT.709Audio
ID : 2
Format : AC-3
Format/Info : Audio Coding 3
Format settings, Endianness : Big
Codec ID : A_AC3
Duration : 1 h 46 min
Bit rate mode : Constant
Bit rate : 128 kb/s
Channel(s) : 2 channels
Channel positions : Front: L R
Sampling rate : 48.0 kHz
Frame rate : 31.250 FPS (1536 spf)
Bit depth : 16 bits
Compression mode : Lossy
Stream size : 97.9 MiB (5%)
Service kind : Complete Main
Default : Yes
Forced : NoMenu
00:00:00.000 : :05th January
00:38:15.000 : :12th January
01:13:52.000 : :19th January

Скриншоты

Для скачки контента: [Установить программу-клиент] и кликнуть по - Скачать

[asmlocator.ru].t364399.torrent 
Торрент: Зарегистрирован [ 2017-08-12 14:05 ] · 56B60EBC04CD6E500B489A92D60ECC862F2C8C43

Скачать .torrent

Скачать

20 KB

Статус: проверено
Скачан: 0 раз
Размер: 1,96 GB
terms.php
[Профиль] [ЛС]
Показать сообщения:    
Ответить на тему

Текущее время: 12-Дек 18:06

Часовой пояс: UTC ± 0



Вы не можете начинать темы
Вы не можете отвечать на сообщения
Вы не можете редактировать свои сообщения
Вы не можете удалять свои сообщения
Вы не можете голосовать в опросах
Вы не можете прикреплять файлы к сообщениям
Вы можете скачивать файлы