(Electro,Techno) [WEB,CD] Label - Bass Agenda Recordings [2013 - 2017] [56xReleases] , FLAC (tracks) (tracks+.cue), lossless

Ответить на тему
Статистика раздачи
Размер:  11,83 GB   |    Зарегистрирован:  3 месяца 8 дней   |    Скачан:  0 раз

Полного источника не было: 2 месяца 30 дней

 
   
 
 
Автор Сообщение

star21 ®

Пол: Не указан

Стаж: 1 год 11 месяцев

Сообщений: 355767

Создавать темы 10-Июл-2017 13:50

[Цитировать]

Bass Agenda Recordings Label based in UK.
Жанр: Electro, Techno||Годы изданий: 2013 - 2017
Аудио кодек:FLAC || Тип рипа: tracks ,tracks+.cue|| Битрейт аудио: lossless ||Источник:What.Cd ?,Apollo
Продолжительность: 31:31:38

Albums & EP

[BA001] Bass Agenda Vol 1 - The Fight Against The Mundane [2013]

Жанр: Electro
Продолжительность:04:21:40
Треклист:

CD 1

01. Illektrolab & 4th Genome – Intro (The Fight Against The Mundane)
02. Romplex – Basstroyer
03. The Exaltics – In Time
04. Datacrashrobot – Mmic
05. Franck Kartell – Mox
06. Dexterous Numerics & 4th Genome – Make It Happen
07. Neon Electronics – Games Of Love
08. R21 – Time Travel
09. Middle Men – For All Your Tomorrows
10. Iffnot & Prot | O | Type – Electric Ace
11. Vadim SVD – Frozen Time
12. PL_anet – I Am A Robot
13. N-ter – Teknology
14. Miotek – Empty Your Mind
15. Medora – For Pleasure (De Con Version)Total time: 01:06:53

CD 2

01. Weapons Of Bass Destruction – End Of Science
02. Korrupted Brothers – Zero Time
03. W1b0 – Main Squeeze (Bass Agenda Edit)
04. Alavux – Cycle
05. Dwellz Rawkz – Hanibal Lectro
06. Noise & Noise – Thought Disorder
07. Hadamard – You Know What I Mean
08. Deemphasis – Hidden Sun
09. _AWOL – 3rd_Sektor
10. Scape One – Timelapse
11. Microslav – Köln
12. Das Muster – Geheimabsprache
13. Defbass & Jay Mass – Fallout
14. Rawtary – Many Many Things
15. Sync 24 – Kinda LooseTotal time: 67:06.10

Лог создания рипа

CD1

Exact Audio Copy V1.0 beta 3 from 29. August 2011EAC extraction logfile from 1. December 2013, 15:45Various Artists / Bass Agenda Vol 1: the Fight Against the MachineUsed drive  : ATAPI   iHAS524   D   Adapter: 4  ID: 0Read mode               : SecureUtilize accurate stream : YesDefeat audio cache      : YesMake use of C2 pointers : NoRead offset correction                      : 6Overread into Lead-In and Lead-Out          : NoFill up missing offset samples with silence : YesDelete leading and trailing silent blocks   : NoNull samples used in CRC calculations       : YesUsed interface                              : Native Win32 interface for Win NT & 2000Gap handling                                : Appended to previous trackUsed output format              : User Defined EncoderSelected bitrate                : 1024 kBit/sQuality                         : HighAdd ID3 tag                     : NoCommand line compressor         : C:\Program Files (x86)\Exact Audio Copy\FLAC\FLAC.EXEAdditional command line options : -8 -V -T "ARTIST=%artist%" -T "TITLE=%title%" -T "ALBUM=%albumtitle%" -T "DATE=%year%" -T "TRACKNUMBER=%tracknr%" -T "GENRE=%genre%" -T "PERFORMER=%albuminterpret%" -T "COMPOSER=%composer%" %haslyrics%--tag-from-file=LYRICS="%lyricsfile%"%haslyrics% -T "ALBUMARTIST=%albumartist%" -T "DISCNUMBER=%cdnumber%" -T "TOTALDISCS=%totalcds%" -T "TOTALTRACKS=%numtracks%" -T "COMMENT=%comment%" %source% -o %dest%TOC of the extracted CD     Track |   Start  |  Length  | Start sector | End sector    ---------------------------------------------------------        1  |  0:00.00 |  0:37.52 |         0    |     2826        2  |  0:37.52 |  5:57.64 |      2827    |    29665        3  |  6:35.41 |  3:55.05 |     29666    |    47295        4  | 10:30.46 |  4:08.48 |     47296    |    65943        5  | 14:39.19 |  4:12.41 |     65944    |    84884        6  | 18:51.60 |  5:57.63 |     84885    |   111722        7  | 24:49.48 |  5:24.27 |    111723    |   136049        8  | 30:14.00 |  5:21.04 |    136050    |   160128        9  | 35:35.04 |  4:12.10 |    160129    |   179038       10  | 39:47.14 |  4:13.69 |    179039    |   198082       11  | 44:01.08 |  6:58.36 |    198083    |   229468       12  | 50:59.44 |  5:03.37 |    229469    |   252230       13  | 56:03.06 |  5:32.47 |    252231    |   277177       14  | 61:35.53 |  5:17.45 |    277178    |   300997       15  | 66:53.23 |  6:56.11 |    300998    |   332208Track  1     Filename D:\EAC\01. Illektrolab & 4th Genome - Intro (the Fight Against the Machine).wav     Pre-gap length  0:00:02.00     Peak level 95.8 %     Extraction speed 3.3 X     Track quality 100.0 %     Test CRC E7AF9B77     Copy CRC E7AF9B77     Track not present in AccurateRip database     Copy OKTrack  2     Filename D:\EAC\02. Romplex - Basstroyer.wav     Peak level 96.6 %     Extraction speed 6.4 X     Track quality 100.0 %     Test CRC 6FB52B76     Copy CRC 6FB52B76     Track not present in AccurateRip database     Copy OKTrack  3     Filename D:\EAC\03. The Exaltics - In Time.wav     Peak level 96.6 %     Extraction speed 5.7 X     Track quality 99.9 %     Test CRC B6ADAB78     Copy CRC B6ADAB78     Track not present in AccurateRip database     Copy OKTrack  4     Filename D:\EAC\04. Datacrashrobot - MMIC.wav     Peak level 96.6 %     Extraction speed 6.1 X     Track quality 99.9 %     Test CRC 7256F9F7     Copy CRC 7256F9F7     Track not present in AccurateRip database     Copy OKTrack  5     Filename D:\EAC\05. Franck Kartell - Mox.wav     Peak level 96.6 %     Extraction speed 7.6 X     Track quality 100.0 %     Test CRC 7BC12A61     Copy CRC 7BC12A61     Track not present in AccurateRip database     Copy OKTrack  6     Filename D:\EAC\06. Dexterous Numerics & 4th Genome - Make It Happen.wav     Peak level 96.6 %     Extraction speed 8.5 X     Track quality 100.0 %     Test CRC 93D53796     Copy CRC 93D53796     Track not present in AccurateRip database     Copy OKTrack  7     Filename D:\EAC\07. Neon Electronics - Games of Love.wav     Peak level 96.6 %     Extraction speed 7.9 X     Track quality 99.9 %     Test CRC F84E4754     Copy CRC F84E4754     Track not present in AccurateRip database     Copy OKTrack  8     Filename D:\EAC\08. R21 - Time Travel.wav     Pre-gap length  0:00:00.01     Peak level 96.6 %     Extraction speed 8.3 X     Track quality 99.9 %     Test CRC B4AA620A     Copy CRC B4AA620A     Track not present in AccurateRip database     Copy OKTrack  9     Filename D:\EAC\09. Middle Men - For All Your Tomorrows.wav     Peak level 96.6 %     Extraction speed 9.6 X     Track quality 100.0 %     Test CRC 62F002CD     Copy CRC 62F002CD     Track not present in AccurateRip database     Copy OKTrack 10     Filename D:\EAC\10. Iffnot & Prot ! O ! Type - Electric Ace.wav     Peak level 96.6 %     Extraction speed 9.8 X     Track quality 100.0 %     Test CRC 12548865     Copy CRC 12548865     Track not present in AccurateRip database     Copy OKTrack 11     Filename D:\EAC\11. Vadim Svd - Frozen Time.wav     Peak level 96.6 %     Extraction speed 10.9 X     Track quality 100.0 %     Test CRC 7BC17CC1     Copy CRC 7BC17CC1     Track not present in AccurateRip database     Copy OKTrack 12     Filename D:\EAC\12. Pl_anet - I Am a Robot.wav     Peak level 96.6 %     Extraction speed 11.0 X     Track quality 100.0 %     Test CRC C7D956CD     Copy CRC C7D956CD     Track not present in AccurateRip database     Copy OKTrack 13     Filename D:\EAC\13. N-ter - Teknology.wav     Peak level 96.6 %     Extraction speed 10.0 X     Track quality 99.9 %     Test CRC 49093824     Copy CRC 49093824     Track not present in AccurateRip database     Copy OKTrack 14     Filename D:\EAC\14. Miotek - Empty Your Mind.wav     Peak level 96.6 %     Extraction speed 11.6 X     Track quality 100.0 %     Test CRC 121B7180     Copy CRC 121B7180     Track not present in AccurateRip database     Copy OKTrack 15     Filename D:\EAC\15. Medora - For Pleasure (De Con Version).wav     Peak level 96.6 %     Extraction speed 12.1 X     Track quality 100.0 %     Test CRC D45221B0     Copy CRC D45221B0     Track not present in AccurateRip database     Copy OKNone of the tracks are present in the AccurateRip databaseNo errors occurredEnd of status report---- CUETools DB Plugin V2.1.3[CTDB TOCID: 1k7t_wLDgp7XX68FzScFQ5wjgR8-] found, Submit result: 1k7t_wLDgp7XX68FzScFQ5wjgR8- has been confirmed[c914823f] (2/2) Accurately ripped==== Log checksum A12B6D8D7EDD4CDC979EA6479367BFCE21C33ACFEA4A9F3020883427F476A0B3 ====

CD2

Exact Audio Copy V1.0 beta 3 from 29. August 2011EAC extraction logfile from 1. December 2013, 18:48Various Artists / Bass Agenda Vol 1: The Fight Against The Mundane (Offensive 2)Used drive  : ATAPI   iHAS524   D   Adapter: 4  ID: 0Read mode               : SecureUtilize accurate stream : YesDefeat audio cache      : YesMake use of C2 pointers : NoRead offset correction                      : 6Overread into Lead-In and Lead-Out          : NoFill up missing offset samples with silence : YesDelete leading and trailing silent blocks   : NoNull samples used in CRC calculations       : YesUsed interface                              : Native Win32 interface for Win NT & 2000Gap handling                                : Appended to previous trackUsed output format              : User Defined EncoderSelected bitrate                : 1024 kBit/sQuality                         : HighAdd ID3 tag                     : NoCommand line compressor         : C:\Program Files (x86)\Exact Audio Copy\FLAC\FLAC.EXEAdditional command line options : -8 -V -T "ARTIST=%artist%" -T "TITLE=%title%" -T "ALBUM=%albumtitle%" -T "DATE=%year%" -T "TRACKNUMBER=%tracknr%" -T "GENRE=%genre%" -T "PERFORMER=%albuminterpret%" -T "COMPOSER=%composer%" %haslyrics%--tag-from-file=LYRICS="%lyricsfile%"%haslyrics% -T "ALBUMARTIST=%albumartist%" -T "DISCNUMBER=%cdnumber%" -T "TOTALDISCS=%totalcds%" -T "TOTALTRACKS=%numtracks%" -T "COMMENT=%comment%" %source% -o %dest%TOC of the extracted CD     Track |   Start  |  Length  | Start sector | End sector    ---------------------------------------------------------        1  |  0:00.00 |  3:33.25 |         0    |    15999        2  |  3:33.25 |  5:28.52 |     16000    |    40651        3  |  9:02.02 |  6:29.66 |     40652    |    69892        4  | 15:31.68 |  4:18.21 |     69893    |    89263        5  | 19:50.14 |  5:10.37 |     89264    |   112550        6  | 25:00.51 |  1:42.69 |    112551    |   120269        7  | 26:43.45 |  5:31.30 |    120270    |   145124        8  | 32:15.00 |  6:03.00 |    145125    |   172349        9  | 38:18.00 |  5:18.42 |    172350    |   196241       10  | 43:36.42 |  6:45.10 |    196242    |   226626       11  | 50:21.52 |  4:53.03 |    226627    |   248604       12  | 55:14.55 |  2:56.70 |    248605    |   261874       13  | 58:11.50 |  4:34.05 |    261875    |   282429       14  | 62:45.55 |  4:20.30 |    282430    |   301959       15  | 67:06.10 |  6:00.04 |    301960    |   328963Track  1     Filename D:\EAC\01. Weapons of Bass Destruction - End of Science.wav     Pre-gap length  0:00:02.00     Peak level 96.6 %     Extraction speed 5.7 X     Track quality 100.0 %     Test CRC 2E6C781E     Copy CRC 2E6C781E     Track not present in AccurateRip database     Copy OKTrack  2     Filename D:\EAC\02. The Korrupted Brothers - Zero Time.wav     Peak level 96.6 %     Extraction speed 5.9 X     Track quality 99.9 %     Test CRC 2FD0511B     Copy CRC 2FD0511B     Track not present in AccurateRip database     Copy OKTrack  3     Filename D:\EAC\03. W1BO - Main Squeeze.wav     Peak level 96.6 %     Extraction speed 7.5 X     Track quality 100.0 %     Test CRC 42372162     Copy CRC 42372162     Track not present in AccurateRip database     Copy OKTrack  4     Filename D:\EAC\04. Avalux - Cycle.wav     Peak level 96.0 %     Extraction speed 6.7 X     Track quality 99.9 %     Test CRC E4D7BC1B     Copy CRC E4D7BC1B     Track not present in AccurateRip database     Copy OKTrack  5     Filename D:\EAC\05. Dwellz - Hannibal Lectro.wav     Peak level 96.6 %     Extraction speed 8.4 X     Track quality 100.0 %     Test CRC 1E8CB44E     Copy CRC 1E8CB44E     Track not present in AccurateRip database     Copy OKTrack  6     Filename D:\EAC\06. Noise&Noise - Thought Disorder.wav     Peak level 96.6 %     Extraction speed 5.2 X     Track quality 99.8 %     Test CRC 82E64A8D     Copy CRC 82E64A8D     Track not present in AccurateRip database     Copy OKTrack  7     Filename D:\EAC\07. Hadamard - You Know What I Mean.wav     Peak level 96.6 %     Extraction speed 9.2 X     Track quality 100.0 %     Test CRC 549CD0DF     Copy CRC 549CD0DF     Track not present in AccurateRip database     Copy OKTrack  8     Filename D:\EAC\08. Deemphasis - Hidden Sun.wav     Peak level 96.6 %     Extraction speed 9.7 X     Track quality 100.0 %     Test CRC 1D9E748D     Copy CRC 1D9E748D     Track not present in AccurateRip database     Copy OKTrack  9     Filename D:\EAC\09. _AWOL - 3rd_Sektor.wav     Pre-gap length  0:00:00.01     Peak level 95.6 %     Extraction speed 10.1 X     Track quality 100.0 %     Test CRC 63E6A2A9     Copy CRC 63E6A2A9     Track not present in AccurateRip database     Copy OKTrack 10     Filename D:\EAC\10. Scape One - Timelapse.wav     Peak level 96.6 %     Extraction speed 10.8 X     Track quality 100.0 %     Test CRC 65BC1B4E     Copy CRC 65BC1B4E     Track not present in AccurateRip database     Copy OKTrack 11     Filename D:\EAC\11. Microslav - Köln.wav     Peak level 96.6 %     Extraction speed 10.7 X     Track quality 100.0 %     Test CRC 3FF53D6A     Copy CRC 3FF53D6A     Track not present in AccurateRip database     Copy OKTrack 12     Filename D:\EAC\12. Das Muster - Geheimabsprache.wav     Peak level 96.6 %     Extraction speed 8.3 X     Track quality 99.9 %     Test CRC 3FBA3FC3     Copy CRC 3FBA3FC3     Track not present in AccurateRip database     Copy OKTrack 13     Filename D:\EAC\13. Defbass & Jay Mass - Fallout.wav     Peak level 96.6 %     Extraction speed 11.3 X     Track quality 100.0 %     Test CRC F1F2A8CE     Copy CRC F1F2A8CE     Track not present in AccurateRip database     Copy OKTrack 14     Filename D:\EAC\14. Rawtary - Many Many Things.wav     Peak level 96.6 %     Extraction speed 11.5 X     Track quality 100.0 %     Test CRC 5113495E     Copy CRC 5113495E     Track not present in AccurateRip database     Copy OKTrack 15     Filename D:\EAC\15. Sync 24 - Kinda Loose.wav     Peak level 96.6 %     Extraction speed 12.2 X     Track quality 100.0 %     Test CRC D4E6EEA0     Copy CRC D4E6EEA0     Track not present in AccurateRip database     Copy OKNone of the tracks are present in the AccurateRip databaseNo errors occurredEnd of status report---- CUETools DB Plugin V2.1.3[CTDB TOCID: jpSOCkTI9pUvuYSm6kPK0Y0NsIY-] found, Submit result: jpSOCkTI9pUvuYSm6kPK0Y0NsIY- has been confirmed[5b779078] (2/2) Accurately ripped==== Log checksum AF9197ABDC892E8410F8F9C251A05647333DFE391EA784687433B68DF34FC1A8 ====

Содержание индексной карты (.CUE)

CD1

REM GENRE BreakbeatREM DATE 2013REM DISCID D4114D0FREM COMMENT "ExactAudioCopy v1.0b3"PERFORMER "Various Artists"TITLE "Bass Agenda Vol 1: the Fight Against the Machine"FILE "01. Various Artists - Illektrolab & 4th Genome - Intro (the Fight Against the Machine).wav" WAVE  TRACK 01 AUDIO    TITLE "Illektrolab & 4th Genome - Intro (the Fight Against the Machine)"    PERFORMER "Various Artists"    ISRC 000000000000    INDEX 01 00:00:00FILE "02. Various Artists - Romplex - Basstroyer.wav" WAVE  TRACK 02 AUDIO    TITLE "Romplex - Basstroyer"    PERFORMER "Various Artists"    ISRC 000000000000    INDEX 01 00:00:00FILE "03. Various Artists - The Exaltics - In Time.wav" WAVE  TRACK 03 AUDIO    TITLE "The Exaltics - In Time"    PERFORMER "Various Artists"    ISRC 000000000000    INDEX 01 00:00:00FILE "04. Various Artists - Datacrashrobot - MMIC.wav" WAVE  TRACK 04 AUDIO    TITLE "Datacrashrobot - MMIC"    PERFORMER "Various Artists"    ISRC 000000000000    INDEX 01 00:00:00FILE "05. Various Artists - Franck Kartell - Mox.wav" WAVE  TRACK 05 AUDIO    TITLE "Franck Kartell - Mox"    PERFORMER "Various Artists"    ISRC 000000000000    INDEX 01 00:00:00FILE "06. Various Artists - Dexterous Numerics & 4th Genome - Make It Happen.wav" WAVE  TRACK 06 AUDIO    TITLE "Dexterous Numerics & 4th Genome - Make It Happen"    PERFORMER "Various Artists"    ISRC 000000000000    INDEX 01 00:00:00FILE "07. Various Artists - Neon Electronics - Games of Love.wav" WAVE  TRACK 07 AUDIO    TITLE "Neon Electronics - Games of Love"    PERFORMER "Various Artists"    ISRC 000000000000    INDEX 01 00:00:00  TRACK 08 AUDIO    TITLE "R21 - Time Travel"    PERFORMER "Various Artists"    ISRC 000000000000    INDEX 00 05:24:26FILE "08. Various Artists - R21 - Time Travel.wav" WAVE    INDEX 01 00:00:00FILE "09. Various Artists - Middle Men - For All Your Tomorrows.wav" WAVE  TRACK 09 AUDIO    TITLE "Middle Men - For All Your Tomorrows"    PERFORMER "Various Artists"    ISRC 000000000000    INDEX 01 00:00:00FILE "10. Various Artists - Iffnot & Prot ! O ! Type - Electric Ace.wav" WAVE  TRACK 10 AUDIO    TITLE "Iffnot & Prot | O | Type - Electric Ace"    PERFORMER "Various Artists"    ISRC 000000000000    INDEX 01 00:00:00FILE "11. Various Artists - Vadim Svd - Frozen Time.wav" WAVE  TRACK 11 AUDIO    TITLE "Vadim Svd - Frozen Time"    PERFORMER "Various Artists"    ISRC 000000000000    INDEX 01 00:00:00FILE "12. Various Artists - Pl_anet -I Am a Robot.wav" WAVE  TRACK 12 AUDIO    TITLE "Pl_anet -I Am a Robot"    PERFORMER "Various Artists"    ISRC 000000000000    INDEX 01 00:00:00FILE "13. Various Artists - N-ter - Teknology.wav" WAVE  TRACK 13 AUDIO    TITLE "N-ter - Teknology"    PERFORMER "Various Artists"    ISRC 000000000000    INDEX 01 00:00:00FILE "14. Miotek - Empty Your Mind.wav" WAVE  TRACK 14 AUDIO    TITLE "Empty Your Mind"    PERFORMER "Miotek"    ISRC 000000000000    INDEX 01 00:00:00FILE "15. Medora - For Pleasure (De Con Version).wav" WAVE  TRACK 15 AUDIO    TITLE "For Pleasure (De Con Version)"    PERFORMER "Medora"    ISRC 000000000000    INDEX 01 00:00:00

CD2

REM GENRE ElectronicREM DATE 2013REM DISCID BE11220FREM COMMENT "ExactAudioCopy v1.0b3"PERFORMER "Various Artists"TITLE "Bass Agenda Vol 1: The Fight Against The Mundane (Offensive 2)"FILE "01. Weapons of Bass Destruction - End of Science.wav" WAVE  TRACK 01 AUDIO    TITLE "End of Science"    PERFORMER "Weapons of Bass Destruction"    ISRC 000000000000    INDEX 01 00:00:00FILE "02. The Korrupted Brothers - Zero Time.wav" WAVE  TRACK 02 AUDIO    TITLE "Zero Time"    PERFORMER "The Korrupted Brothers"    ISRC 000000000000    INDEX 01 00:00:00FILE "03. W1BO - Main Squeeze.wav" WAVE  TRACK 03 AUDIO    TITLE "Main Squeeze"    PERFORMER "W1BO"    ISRC 000000000000    INDEX 01 00:00:00FILE "04. Avalux - Cycle.wav" WAVE  TRACK 04 AUDIO    TITLE "Cycle"    PERFORMER "Avalux"    ISRC 000000000000    INDEX 01 00:00:00FILE "05. Dwellz - Hannibal Lectro.wav" WAVE  TRACK 05 AUDIO    TITLE "Hannibal Lectro"    PERFORMER "Dwellz"    ISRC 000000000000    INDEX 01 00:00:00FILE "06. Noise&Noise - Thought Disorder.wav" WAVE  TRACK 06 AUDIO    TITLE "Thought Disorder"    PERFORMER "Noise&Noise"    ISRC 000000000000    INDEX 01 00:00:00FILE "07. Hadamard - You Know What I Mean.wav" WAVE  TRACK 07 AUDIO    TITLE "You Know What I Mean"    PERFORMER "Hadamard"    ISRC 000000000000    INDEX 01 00:00:00FILE "08. Deemphasis - Hidden Sun.wav" WAVE  TRACK 08 AUDIO    TITLE "Hidden Sun"    PERFORMER "Deemphasis"    ISRC 000000000000    INDEX 01 00:00:00  TRACK 09 AUDIO    TITLE "3rd_Sektor"    PERFORMER "_AWOL"    ISRC 000000000000    INDEX 00 06:02:74FILE "09. _AWOL - 3rd_Sektor.wav" WAVE    INDEX 01 00:00:00FILE "10. Scape One - Timelapse.wav" WAVE  TRACK 10 AUDIO    TITLE "Timelapse"    PERFORMER "Scape One"    ISRC 000000000000    INDEX 01 00:00:00FILE "11. Microslav - Koln.wav" WAVE  TRACK 11 AUDIO    TITLE "Koln"    PERFORMER "Microslav"    ISRC 000000000000    INDEX 01 00:00:00FILE "12. Das Muster - Geheimabsprache.wav" WAVE  TRACK 12 AUDIO    TITLE "Geheimabsprache"    PERFORMER "Das Muster"    ISRC 000000000000    INDEX 01 00:00:00FILE "13. Defbass & Jay Mass - Fallout.wav" WAVE  TRACK 13 AUDIO    TITLE "Fallout"    PERFORMER "Defbass & Jay Mass"    ISRC 000000000000    INDEX 01 00:00:00FILE "14. Rawtary - Many Many Things.wav" WAVE  TRACK 14 AUDIO    TITLE "Many Many Things"    PERFORMER "Rawtary"    ISRC 000000000000    INDEX 01 00:00:00FILE "15. Sync 24 - Kinda Loose.wav" WAVE  TRACK 15 AUDIO    TITLE "Kinda Loose"    PERFORMER "Sync 24"    ISRC 000000000000    INDEX 01 00:00:00

[BA002] The Bokanovsky Process - My Electroc!d [2013]

Жанр: Electro
Продолжительность:00:22:3001. My Electroc!d (06:40)
02. My Electroc!d (Miotek remix) (05:18)
03. My Electroc!d (Fleck ESC remix) (05:23)
04. My Electroc!d (Miotek dry remix) (05:09)

Лог проверки качества

-----------------------DON'T MODIFY THIS FILE-----------------------PERFORMER: auCDtect Task Manager, ver. 1.5.1RC6 build 1.5.1.7Copyright (c) 2008-2010 y-soft. All rights reservedhttp://y-soft.orgANALYZER: auCDtect: CD records authenticity detector, version 0.8.2Copyright (c) 2004 Oleg Berngardt. All rights reserved.Copyright (c) 2004 Alexander Djourik. All rights reserved.FILE: 04. My Electroc!d (Miotek Dry Remix).flac  Size: 25471668 Hash: 62CCD85DFD6B9B2F3DBCAE555F37480D Accuracy: -m0  Conclusion: CDDA 100%  Signature: 4D4C2738F2FEB1C55FB971C8D643C95E6B369BB2FILE: 03. My Electroc!d (Fleck ESC Remix).flac  Size: 33381329 Hash: AD5F75690A8EF70C709E36C117C833F0 Accuracy: -m0  Conclusion: MPEG 95%  Signature: B3970C1AA4F912677BECDF49869798E77BFE41A0FILE: 02. My Electroc!d (Miotek Remix).flac  Size: 34016745 Hash: 0025534C9B8B233586B5578FAEC0C5AE Accuracy: -m0  Conclusion: CDDA 100%  Signature: 3E617CBD9FA16377E43606A94C5AA30F1F6F2E6CFILE: 01. My Electroc!d.flac  Size: 42401926 Hash: 136E39165F3A46781B48ACCB69B6AD14 Accuracy: -m0  Conclusion: MPEG 95%  Signature: 39B58DECB9CA7C8A76290783FA812938035E064C

[BA003] Mike Ash - UFO3030 [2013]

Жанр: Electro
Продолжительность:01:08:5801. Space Age (05:51)
02. Return Home (05:43)
03. The Beings (05:41)
04. Human Interaction (04:43)
05. Inject The Beat (05:42)
06. UFO3030 (05:42)
07. Reset All Parameters (05:42)
08. For All Mankind (05:20)
09. Atmospheric Penetration (06:38)
10. Automated Machines (06:13)
11. Superior Civilisation (05:26)
12. 1947 (06:17)

Лог проверки качества

-----------------------DON'T MODIFY THIS FILE-----------------------PERFORMER: auCDtect Task Manager, ver. 1.5.1RC6 build 1.5.1.7Copyright (c) 2008-2010 y-soft. All rights reservedhttp://y-soft.orgANALYZER: auCDtect: CD records authenticity detector, version 0.8.2Copyright (c) 2004 Oleg Berngardt. All rights reserved.Copyright (c) 2004 Alexander Djourik. All rights reserved.FILE: 12. 1947.flac  Size: 44190761 Hash: 151306375AADEB7AA040C8B8E2513C9C Accuracy: -m0  Conclusion: MPEG 95%  Signature: 72A534989C272A90C55CB72464BD3BFD108FE2C8FILE: 11. Superior Civilisation.flac  Size: 35939369 Hash: DF87EFBFF25A52DAC9BD33F551B1FA7C Accuracy: -m0  Conclusion: CDDA 100%  Signature: AB21B1C22ECD0A45A07A9DE0C408F932BCA4DED6FILE: 10. Automated Machines.flac  Size: 39503887 Hash: 190737C72638DDC68172A057B098F930 Accuracy: -m0  Conclusion: CDDA 99%  Signature: 51469AB1FE89834DFB3382B9910FB475892B260DFILE: 09. Atmospheric Penetration.flac  Size: 43798785 Hash: 7CFE0BB5A72BB9882B39686A197DCD4D Accuracy: -m0  Conclusion: MPEG 95%  Signature: CB9D343CA70B99E538BB0CEE71A883C7316744EFFILE: 08. For All Mankind.flac  Size: 38231930 Hash: 518E4684AFA8D5D43D44E1831E9850CA Accuracy: -m0  Conclusion: MPEG 95%  Signature: 2C97FF70E3AB96D91AF1FB27121CB9A2ECD2E397FILE: 07. Reset All Parameters.flac  Size: 34013258 Hash: 38001E5FA6FA0A0C9B501B9C08D9D81C Accuracy: -m0  Conclusion: CDDA 99%  Signature: 186DF2CBA23314741380D7A0F18DD102CA17E35BFILE: 06. Ufo3030.flac  Size: 34748785 Hash: 90AB1FA59087BA3B767FCC0D4F69C635 Accuracy: -m0  Conclusion: MPEG 95%  Signature: D68FEB74D9A137EF42AAB01EC2D04895E639C1C7FILE: 05. Inject The Beat.flac  Size: 37691902 Hash: 5F57BAE4035B55D9C5F4526D9CA9F45C Accuracy: -m0  Conclusion: CDDA 100%  Signature: D6D1AAAF31FE8EFC3E3DC0FFE59CF717DC7C9D95FILE: 04. Human Interaction.flac  Size: 29787565 Hash: ED736193F18E89EDD8B3CC66B166F12B Accuracy: -m0  Conclusion: CDDA 100%  Signature: 180B8B4F2D6961EEE020534D842D7E3E3E3F8473FILE: 03. The Beings.flac  Size: 36312363 Hash: A98BBA8FC259A82E505E3CE42125F9E9 Accuracy: -m0  Conclusion: CDDA 100%  Signature: 93459183611A20FA34CA1C183E571890828A9C3AFILE: 02. Return Home.flac  Size: 40318930 Hash: D54083205868A25F5886ACDD12DDA955 Accuracy: -m0  Conclusion: CDDA 100%  Signature: 4121C71F343EB36A9146B2ED6C74C974D1C24DC8FILE: 01. Space Age.flac  Size: 35348515 Hash: B232B095890400161005BB3F2B232B4A Accuracy: -m0  Conclusion: MPEG 95%  Signature: BC50724CB756626BA2CEEE8958F7390EA9DA836E

[BA004] Subscriber - The Daybreaker [2013]

Жанр: Electro
Продолжительность:00:35:3201. Splits of Beats (06:25)
02. Cluster (06:26)
03. Extraction (08:35)
04. Daybreaker (05:58)
05. Expo (08:08)

Лог проверки качества

-----------------------DON'T MODIFY THIS FILE-----------------------PERFORMER: auCDtect Task Manager, ver. 1.5.1RC6 build 1.5.1.7Copyright (c) 2008-2010 y-soft. All rights reservedhttp://y-soft.orgANALYZER: auCDtect: CD records authenticity detector, version 0.8.2Copyright (c) 2004 Oleg Berngardt. All rights reserved.Copyright (c) 2004 Alexander Djourik. All rights reserved.FILE: 05. Expo.flac  Size: 57074017 Hash: 763A927998B1C24544C5FD393B15977B Accuracy: -m0  Conclusion: MPEG 95%  Signature: 2A71C3CF58B2D4DDB88E4D7F0364604F7D435213FILE: 04. Daybreaker.flac  Size: 37806667 Hash: 7C4150169B451B46CA9C9C7B5CB87D0B Accuracy: -m0  Conclusion: MPEG 95%  Signature: 565199D79A40B9E56E2A165CAA79DB5D6B2BC0A2FILE: 03. Extraction.flac  Size: 55171059 Hash: 83D5659F22DD8C17FAB18553A087AE68 Accuracy: -m0  Conclusion: MPEG 95%  Signature: AC9423CCA9B8B17F8BF99948F41C444EB9658B6BFILE: 02. Cluster.flac  Size: 43001573 Hash: DD6952EEC1B3F4751893B03205860CCE Accuracy: -m0  Conclusion: MPEG 95%  Signature: 2268472B7570FFA28EC3BFB3C7FEA01D16617AB7FILE: 01. Splits Of Beats.flac  Size: 38126960 Hash: 5C4D084D3EE41A4933489924755A4F00 Accuracy: -m0  Conclusion: MPEG 95%  Signature: 168036AF065C8645E065961D3FF5F4A5AAE0E67A

[BA005] Franck Kartell - Afterlife [2014]

Жанр: Electro
Продолжительность:00:30:0601. State Of Inconsciousness
02. Floating Through The Tunnel
03. Near Death Experience
04. Brain Dead
05. Afterlife
06. Palingenesis
07. Renaissance
08. Metempsychosis

Лог создания рипа

Exact Audio Copy V1.0 beta 3 from 29. August 2011EAC extraction logfile from 11. March 2014, 18:23Franck Kartell / AfterlifeUsed drive  : Optiarc DVD RW AD-5240S   Adapter: 3  ID: 0Read mode               : SecureUtilize accurate stream : YesDefeat audio cache      : YesMake use of C2 pointers : NoRead offset correction                      : 48Overread into Lead-In and Lead-Out          : NoFill up missing offset samples with silence : YesDelete leading and trailing silent blocks   : NoNull samples used in CRC calculations       : YesUsed interface                              : Native Win32 interface for Win NT & 2000Gap handling                                : Appended to previous trackUsed output format              : User Defined EncoderSelected bitrate                : 1024 kBit/sQuality                         : HighAdd ID3 tag                     : NoCommand line compressor         : C:\Program Files (x86)\FLAC\flac.exeAdditional command line options : -8 -V -T "ARTIST=%artist%" -T "TITLE=%title%" -T "ALBUM=%albumtitle%" -T "DATE=%year%" -T "TRACKNUMBER=%tracknr%" -T "GENRE=%genre%" -T "PERFORMER=%albuminterpret%" -T "COMPOSER=%composer%" %haslyrics%--tag-from-file=LYRICS="%lyricsfile%"%haslyrics% -T "ALBUMARTIST=%albumartist%" -T "ALBUM ARTIST=%albumartist%" -T "DISCNUMBER=%cdnumber%" -T "TOTALDISCS=%totalcds%" -T "TOTALTRACKS=%numtracks%" -T "COMMENT=EAC V1.0 beta 2, Secure Mode, Test & Copy, AccurateRip, FLAC -8" %source% -o %dest%TOC of the extracted CD     Track |   Start  |  Length  | Start sector | End sector    ---------------------------------------------------------        1  |  0:00.00 |  3:04.29 |         0    |    13828        2  |  3:04.29 |  6:24.73 |     13829    |    42701        3  |  9:29.27 |  4:45.00 |     42702    |    64076        4  | 14:14.27 |  1:39.42 |     64077    |    71543        5  | 15:53.69 |  5:24.41 |     71544    |    95884        6  | 21:18.35 |  3:57.59 |     95885    |   113718        7  | 25:16.19 |  4:50.34 |    113719    |   135502        8  | 30:06.53 |  1:18.17 |    135503    |   141369Track  1     Filename E:\Audio\Rips\Franck Kartell - 2014 - Afterlife FLAC\01 State of Inconsciousness.wav     Pre-gap length  0:00:02.00     Peak level 100.0 %     Extraction speed 2.4 X     Track quality 100.0 %     Test CRC F62ABD4E     Copy CRC F62ABD4E     Track not present in AccurateRip database     Copy OKTrack  2     Filename E:\Audio\Rips\Franck Kartell - 2014 - Afterlife FLAC\02 Floating Through the Tunnel.wav     Peak level 96.6 %     Extraction speed 3.0 X     Track quality 100.0 %     Test CRC 1D4FABCD     Copy CRC 1D4FABCD     Track not present in AccurateRip database     Copy OKTrack  3     Filename E:\Audio\Rips\Franck Kartell - 2014 - Afterlife FLAC\03 Near Death Experience.wav     Peak level 96.6 %     Extraction speed 3.2 X     Track quality 100.0 %     Test CRC 171A2487     Copy CRC 171A2487     Track not present in AccurateRip database     Copy OKTrack  4     Filename E:\Audio\Rips\Franck Kartell - 2014 - Afterlife FLAC\04 Brain Dead.wav     Peak level 100.0 %     Extraction speed 2.7 X     Track quality 100.0 %     Test CRC BE6BF889     Copy CRC BE6BF889     Track not present in AccurateRip database     Copy OKTrack  5     Filename E:\Audio\Rips\Franck Kartell - 2014 - Afterlife FLAC\05 Afterlife.wav     Peak level 96.6 %     Extraction speed 3.6 X     Track quality 100.0 %     Test CRC CE2F33C5     Copy CRC CE2F33C5     Track not present in AccurateRip database     Copy OKTrack  6     Filename E:\Audio\Rips\Franck Kartell - 2014 - Afterlife FLAC\06 Palingenesis.wav     Peak level 96.6 %     Extraction speed 3.6 X     Track quality 100.0 %     Test CRC FAC1A666     Copy CRC FAC1A666     Track not present in AccurateRip database     Copy OKTrack  7     Filename E:\Audio\Rips\Franck Kartell - 2014 - Afterlife FLAC\07 Renaissance.wav     Peak level 96.6 %     Extraction speed 3.9 X     Track quality 100.0 %     Test CRC 5F3FCA1E     Copy CRC 5F3FCA1E     Track not present in AccurateRip database     Copy OKTrack  8     Filename E:\Audio\Rips\Franck Kartell - 2014 - Afterlife FLAC\08 Metampsychosis.wav     Peak level 96.6 %     Extraction speed 3.1 X     Track quality 100.0 %     Test CRC 59A58A2C     Copy CRC 59A58A2C     Track not present in AccurateRip database     Copy OKNone of the tracks are present in the AccurateRip databaseNo errors occurredEnd of status report==== Log checksum 99EF23B74BB39E3839FE2C571B294D1099172120251EFCD2F2F2ACF2A6FE85C0 ====

Содержание индексной карты (.CUE)

REM GENRE ElectroREM DATE 2014REM DISCID 6F075C08REM COMMENT "ExactAudioCopy v1.0b3"PERFORMER "Franck Kartell"TITLE "Afterlife"FILE "01 State of Inconsciousness.wav" WAVE  TRACK 01 AUDIO    TITLE "State of Inconsciousness"    PERFORMER "Franck Kartell"    INDEX 01 00:00:00FILE "02 Floating Through the Tunnel.wav" WAVE  TRACK 02 AUDIO    TITLE "Floating Through the Tunnel"    PERFORMER "Franck Kartell"    INDEX 01 00:00:00FILE "03 Near Death Experience.wav" WAVE  TRACK 03 AUDIO    TITLE "Near Death Experience"    PERFORMER "Franck Kartell"    INDEX 01 00:00:00FILE "04 Brain Dead.wav" WAVE  TRACK 04 AUDIO    TITLE "Brain Dead"    PERFORMER "Franck Kartell"    INDEX 01 00:00:00FILE "05 Afterlife.wav" WAVE  TRACK 05 AUDIO    TITLE "Afterlife"    PERFORMER "Franck Kartell"    INDEX 01 00:00:00FILE "06 Palingenesis.wav" WAVE  TRACK 06 AUDIO    TITLE "Palingenesis"    PERFORMER "Franck Kartell"    INDEX 01 00:00:00FILE "07 Renaissance.wav" WAVE  TRACK 07 AUDIO    TITLE "Renaissance"    PERFORMER "Franck Kartell"    INDEX 01 00:00:00FILE "08 Metampsychosis.wav" WAVE  TRACK 08 AUDIO    TITLE "Metampsychosis"    PERFORMER "Franck Kartell"    INDEX 01 00:00:00

[BA006] Dynarec - Silver Tourist [2014]

Жанр: Electro
Продолжительность:00:43:2701. Solar Explorations (01:59)
02. Life Is Intense (01:36)
03. Mind To Body Part 2 (04:31)
04. Alpha Thesis (01:59)
05. Beyond The City Walls (02:12)
06. Silver Tourist (04:40)
07. Declination (00:41)
08. Elementary Lifeform (04:38)
09. First Machines (03:11)
10. Optical Lifter (03:33)
11. Mankind Goes Wrong (03:38)
12. Silencer Tool (01:00)
13. The Remorseful Day (04:31)
14. Historic Exhale (05:18)

Лог создания рипа

X Lossless Decoder version 20131102 (145.0)XLD extraction logfile from 2014-03-09 22:57:41 -0700Dynarec / Silver TouristUsed drive : HL-DT-ST DVDRW  GSA-S10N (revision AP12)Media type : CD-RecordableRipper mode             : XLD Secure RipperDisable audio cache     : OK for the drive with a cache less than 1375KiBMake use of C2 pointers : NORead offset correction  : 667Max retry count         : 20Gap status              : Analyzed, Appended (except HTOA)TOC of the extracted CD     Track |   Start  |  Length  | Start sector | End sector    ---------------------------------------------------------        1  | 00:00:00 | 03:58:60 |         0    |    17909        2  | 03:58:60 | 01:36:50 |     17910    |    25159        3  | 05:35:35 | 04:32:30 |     25160    |    45589        4  | 10:07:65 | 02:00:11 |     45590    |    54600        5  | 12:08:01 | 02:13:37 |     54601    |    64612        6  | 14:21:38 | 04:40:52 |     64613    |    85664        7  | 19:02:15 | 00:42:11 |     85665    |    88825        8  | 19:44:26 | 02:25:01 |     88826    |    99701        9  | 22:09:27 | 04:38:73 |     99702    |   120624       10  | 26:48:25 | 03:12:01 |    120625    |   135025       11  | 30:00:26 | 03:34:17 |    135026    |   151092       12  | 33:34:43 | 03:38:59 |    151093    |   167501       13  | 37:13:27 | 05:22:62 |    167502    |   191713       14  | 42:36:14 | 01:00:47 |    191714    |   196260       15  | 43:36:61 | 04:32:20 |    196261    |   216680       16  | 48:09:06 | 05:18:33 |    216681    |   240563AccurateRip Summary    Disc not found in AccurateRip DB.All Tracks    Album gain               : -6.58 dB    Peak                     : 0.966278    Statistics        Read error                           : 0        Jitter error (maybe fixed)           : 0        Retry sector count                   : 0        Damaged sector count                 : 0Track 01    Filename : /Volumes/Seagate Backup Plus Drive/Torrents/CD Rips/Dynarec - Silver Tourist (2014) [FLAC]/01 Solar Explorations.flac    Pre-gap length : 00:02:00    Track gain               : -5.77 dB    Peak                     : 0.966125    CRC32 hash (test run)    : F2ED769C    CRC32 hash               : F2ED769C    CRC32 hash (skip zero)   : 7E85D225    AccurateRip v1 signature : 9A2C2D65    AccurateRip v2 signature : DF3D50CD        ->Track not present in AccurateRip database.    Statistics        Read error                           : 0        Jitter error (maybe fixed)           : 0        Retry sector count                   : 0        Damaged sector count                 : 0Track 02    Filename : /Volumes/Seagate Backup Plus Drive/Torrents/CD Rips/Dynarec - Silver Tourist (2014) [FLAC]/02 Life Is Intense.flac    Pre-gap length : 00:01:00    Track gain               : -6.34 dB    Peak                     : 0.966248    CRC32 hash (test run)    : EA1EBDA1    CRC32 hash               : EA1EBDA1    CRC32 hash (skip zero)   : 644B2E7C    AccurateRip v1 signature : A1831BF1    AccurateRip v2 signature : 9F9C29D3        ->Track not present in AccurateRip database.    Statistics        Read error                           : 0        Jitter error (maybe fixed)           : 0        Retry sector count                   : 0        Damaged sector count                 : 0Track 03    Filename : /Volumes/Seagate Backup Plus Drive/Torrents/CD Rips/Dynarec - Silver Tourist (2014) [FLAC]/03 Mind To Body Part 2.flac    Pre-gap length : 00:01:00    Track gain               : -5.95 dB    Peak                     : 0.966217    CRC32 hash (test run)    : 5D3BB00B    CRC32 hash               : 5D3BB00B    CRC32 hash (skip zero)   : 35BAA233    AccurateRip v1 signature : C39F6F6F    AccurateRip v2 signature : 4C5C6FD6        ->Track not present in AccurateRip database.    Statistics        Read error                           : 0        Jitter error (maybe fixed)           : 0        Retry sector count                   : 0        Damaged sector count                 : 0Track 04    Filename : /Volumes/Seagate Backup Plus Drive/Torrents/CD Rips/Dynarec - Silver Tourist (2014) [FLAC]/04 Alpha Thesis.flac    Pre-gap length : 00:01:00    Track gain               : -7.14 dB    Peak                     : 0.966156    CRC32 hash (test run)    : 05792EA9    CRC32 hash               : 05792EA9    CRC32 hash (skip zero)   : 93AEFFDB    AccurateRip v1 signature : 68284046    AccurateRip v2 signature : E9C18428        ->Track not present in AccurateRip database.    Statistics        Read error                           : 0        Jitter error (maybe fixed)           : 0        Retry sector count                   : 0        Damaged sector count                 : 0Track 05    Filename : /Volumes/Seagate Backup Plus Drive/Torrents/CD Rips/Dynarec - Silver Tourist (2014) [FLAC]/05 Beyond The City Walls.flac    Pre-gap length : 00:01:00    Track gain               : -7.15 dB    Peak                     : 0.966217    CRC32 hash (test run)    : B0582E47    CRC32 hash               : B0582E47    CRC32 hash (skip zero)   : 3529C728    AccurateRip v1 signature : CCA46C14    AccurateRip v2 signature : E06CF32D        ->Track not present in AccurateRip database.    Statistics        Read error                           : 0        Jitter error (maybe fixed)           : 0        Retry sector count                   : 0        Damaged sector count                 : 0Track 06    Filename : /Volumes/Seagate Backup Plus Drive/Torrents/CD Rips/Dynarec - Silver Tourist (2014) [FLAC]/06 Silver Tourist.flac    Pre-gap length : 00:01:00    Track gain               : -6.53 dB    Peak                     : 0.966217    CRC32 hash (test run)    : 5867C900    CRC32 hash               : 5867C900    CRC32 hash (skip zero)   : 7136E657    AccurateRip v1 signature : D35320C3    AccurateRip v2 signature : A1DC0FFC        ->Track not present in AccurateRip database.    Statistics        Read error                           : 0        Jitter error (maybe fixed)           : 0        Retry sector count                   : 0        Damaged sector count                 : 0Track 07    Filename : /Volumes/Seagate Backup Plus Drive/Torrents/CD Rips/Dynarec - Silver Tourist (2014) [FLAC]/07 Declination.flac    Pre-gap length : 00:01:00    Track gain               : -5.22 dB    Peak                     : 0.861145    CRC32 hash (test run)    : 17758544    CRC32 hash               : 17758544    CRC32 hash (skip zero)   : 97E7D754    AccurateRip v1 signature : 01FFD984    AccurateRip v2 signature : E58179A4        ->Track not present in AccurateRip database.    Statistics        Read error                           : 0        Jitter error (maybe fixed)           : 0        Retry sector count                   : 0        Damaged sector count                 : 0Track 08    Filename : /Volumes/Seagate Backup Plus Drive/Torrents/CD Rips/Dynarec - Silver Tourist (2014) [FLAC]/08 Further Investigations.flac    Pre-gap length : 00:01:00    Track gain               : -6.64 dB    Peak                     : 0.966217    CRC32 hash (test run)    : DC318914    CRC32 hash               : DC318914    CRC32 hash (skip zero)   : 3B150C4D    AccurateRip v1 signature : 536FACB6    AccurateRip v2 signature : F4C091F8        ->Track not present in AccurateRip database.    Statistics        Read error                           : 0        Jitter error (maybe fixed)           : 0        Retry sector count                   : 0        Damaged sector count                 : 0Track 09    Filename : /Volumes/Seagate Backup Plus Drive/Torrents/CD Rips/Dynarec - Silver Tourist (2014) [FLAC]/09 Elementary Lifeform.flac    Pre-gap length : 00:01:00    Track gain               : -7.50 dB    Peak                     : 0.966217    CRC32 hash (test run)    : EB18ACFE    CRC32 hash               : EB18ACFE    CRC32 hash (skip zero)   : D756CF8A    AccurateRip v1 signature : A7F89AA4    AccurateRip v2 signature : 4C004706        ->Track not present in AccurateRip database.    Statistics        Read error                           : 0        Jitter error (maybe fixed)           : 0        Retry sector count                   : 0        Damaged sector count                 : 0Track 10    Filename : /Volumes/Seagate Backup Plus Drive/Torrents/CD Rips/Dynarec - Silver Tourist (2014) [FLAC]/10 First Machines.flac    Pre-gap length : 00:01:00    Track gain               : -6.47 dB    Peak                     : 0.907196    CRC32 hash (test run)    : BC85E1D0    CRC32 hash               : BC85E1D0    CRC32 hash (skip zero)   : 7A11A544    AccurateRip v1 signature : BFB0E2CF    AccurateRip v2 signature : 7326AC31        ->Track not present in AccurateRip database.    Statistics        Read error                           : 0        Jitter error (maybe fixed)           : 0        Retry sector count                   : 0        Damaged sector count                 : 0Track 11    Filename : /Volumes/Seagate Backup Plus Drive/Torrents/CD Rips/Dynarec - Silver Tourist (2014) [FLAC]/11 Optical Lifter.flac    Pre-gap length : 00:01:00    Track gain               : -6.86 dB    Peak                     : 0.966187    CRC32 hash (test run)    : 557BC4E2    CRC32 hash               : 557BC4E2    CRC32 hash (skip zero)   : 29647E4F    AccurateRip v1 signature : CE5687CF    AccurateRip v2 signature : CFB3F6E2        ->Track not present in AccurateRip database.    Statistics        Read error                           : 0        Jitter error (maybe fixed)           : 0        Retry sector count                   : 0        Damaged sector count                 : 0Track 12    Filename : /Volumes/Seagate Backup Plus Drive/Torrents/CD Rips/Dynarec - Silver Tourist (2014) [FLAC]/12 Mankind Goes Wrong.flac    Pre-gap length : 00:01:00    Track gain               : -4.75 dB    Peak                     : 0.966248    CRC32 hash (test run)    : 7A3F5B76    CRC32 hash               : 7A3F5B76    CRC32 hash (skip zero)   : 5238F8EE    AccurateRip v1 signature : F68549F5    AccurateRip v2 signature : 6B67D9B5        ->Track not present in AccurateRip database.    Statistics        Read error                           : 0        Jitter error (maybe fixed)           : 0        Retry sector count                   : 0        Damaged sector count                 : 0Track 13    Filename : /Volumes/Seagate Backup Plus Drive/Torrents/CD Rips/Dynarec - Silver Tourist (2014) [FLAC]/13 Planetary Sanctions.flac    Pre-gap length : 00:01:00    Track gain               : -7.81 dB    Peak                     : 0.966248    CRC32 hash (test run)    : B62F7B18    CRC32 hash               : B62F7B18    CRC32 hash (skip zero)   : DF9DBF95    AccurateRip v1 signature : 24F4B0E2    AccurateRip v2 signature : 305A82ED        ->Track not present in AccurateRip database.    Statistics        Read error                           : 0        Jitter error (maybe fixed)           : 0        Retry sector count                   : 0        Damaged sector count                 : 0Track 14    Filename : /Volumes/Seagate Backup Plus Drive/Torrents/CD Rips/Dynarec - Silver Tourist (2014) [FLAC]/14 Silencer Tool.flac    Pre-gap length : 00:01:00    Track gain               : -4.98 dB    Peak                     : 0.939545    CRC32 hash (test run)    : FFAB475A    CRC32 hash               : FFAB475A    CRC32 hash (skip zero)   : 6B4896C9    AccurateRip v1 signature : DD35C08A    AccurateRip v2 signature : 3F77EAAC        ->Track not present in AccurateRip database.    Statistics        Read error                           : 0        Jitter error (maybe fixed)           : 0        Retry sector count                   : 0        Damaged sector count                 : 0Track 15    Filename : /Volumes/Seagate Backup Plus Drive/Torrents/CD Rips/Dynarec - Silver Tourist (2014) [FLAC]/15 The Remorseful Day.flac    Pre-gap length : 00:01:00    Track gain               : -6.15 dB    Peak                     : 0.966156    CRC32 hash (test run)    : 07EC4B6D    CRC32 hash               : 07EC4B6D    CRC32 hash (skip zero)   : FBBE05BF    AccurateRip v1 signature : EC5A7DCA    AccurateRip v2 signature : 54E14DC7        ->Track not present in AccurateRip database.    Statistics        Read error                           : 0        Jitter error (maybe fixed)           : 0        Retry sector count                   : 0        Damaged sector count                 : 0Track 16    Filename : /Volumes/Seagate Backup Plus Drive/Torrents/CD Rips/Dynarec - Silver Tourist (2014) [FLAC]/16 Historic Exhale.flac    Pre-gap length : 00:01:00    Track gain               : -6.32 dB    Peak                     : 0.966278    CRC32 hash (test run)    : A07A518C    CRC32 hash               : A07A518C    CRC32 hash (skip zero)   : F86DC1B0    AccurateRip v1 signature : 84E83B75    AccurateRip v2 signature : E630B22F        ->Track not present in AccurateRip database.    Statistics        Read error                           : 0        Jitter error (maybe fixed)           : 0        Retry sector count                   : 0        Damaged sector count                 : 0No errors occurredEnd of status report-----BEGIN XLD SIGNATURE-----64SdVdoG9Ciy3ci_2dhkJN2KByvI2.AXGm5BaqRvYITPtW3cUwPjk2AtfHQ7mXQ7pF6WxAXWgucvjBxCySHPmScjmz.LL6Zy7IqgBke-----END XLD SIGNATURE-----

Содержание индексной карты (.CUE)

TITLE "Silver Tourist"PERFORMER "Dynarec"REM GENRE "Electro"REM DATE "2014"REM DISCNUMBER 1REM TOTALDISCS 1REM DISCID C20C8710REM REPLAYGAIN_ALBUM_GAIN -6.58 dBREM REPLAYGAIN_ALBUM_PEAK 0.966278FILE "01 Solar Explorations.flac" WAVE  TRACK 01 AUDIO    TITLE "Solar Explorations"    REM REPLAYGAIN_TRACK_GAIN -5.77 dB    REM REPLAYGAIN_TRACK_PEAK 0.966125    INDEX 01 00:00:00  TRACK 02 AUDIO    TITLE "Life Is Intense"    REM REPLAYGAIN_TRACK_GAIN -6.34 dB    REM REPLAYGAIN_TRACK_PEAK 0.966248    INDEX 00 03:57:60FILE "02 Life Is Intense.flac" WAVE    INDEX 01 00:00:00  TRACK 03 AUDIO    TITLE "Mind To Body Part 2"    REM REPLAYGAIN_TRACK_GAIN -5.95 dB    REM REPLAYGAIN_TRACK_PEAK 0.966217    INDEX 00 01:35:50FILE "03 Mind To Body Part 2.flac" WAVE    INDEX 01 00:00:00  TRACK 04 AUDIO    TITLE "Alpha Thesis"    REM REPLAYGAIN_TRACK_GAIN -7.14 dB    REM REPLAYGAIN_TRACK_PEAK 0.966156    INDEX 00 04:31:30FILE "04 Alpha Thesis.flac" WAVE    INDEX 01 00:00:00  TRACK 05 AUDIO    TITLE "Beyond The City Walls"    REM REPLAYGAIN_TRACK_GAIN -7.15 dB    REM REPLAYGAIN_TRACK_PEAK 0.966217    INDEX 00 01:59:11FILE "05 Beyond The City Walls.flac" WAVE    INDEX 01 00:00:00  TRACK 06 AUDIO    TITLE "Silver Tourist"    REM REPLAYGAIN_TRACK_GAIN -6.53 dB    REM REPLAYGAIN_TRACK_PEAK 0.966217    INDEX 00 02:12:37FILE "06 Silver Tourist.flac" WAVE    INDEX 01 00:00:00  TRACK 07 AUDIO    TITLE "Declination"    REM REPLAYGAIN_TRACK_GAIN -5.22 dB    REM REPLAYGAIN_TRACK_PEAK 0.861145    INDEX 00 04:39:52FILE "07 Declination.flac" WAVE    INDEX 01 00:00:00  TRACK 08 AUDIO    TITLE "Further Investigations"    REM REPLAYGAIN_TRACK_GAIN -6.64 dB    REM REPLAYGAIN_TRACK_PEAK 0.966217    INDEX 00 00:41:11FILE "08 Further Investigations.flac" WAVE    INDEX 01 00:00:00  TRACK 09 AUDIO    TITLE "Elementary Lifeform"    REM REPLAYGAIN_TRACK_GAIN -7.50 dB    REM REPLAYGAIN_TRACK_PEAK 0.966217    INDEX 00 02:24:01FILE "09 Elementary Lifeform.flac" WAVE    INDEX 01 00:00:00  TRACK 10 AUDIO    TITLE "First Machines"    REM REPLAYGAIN_TRACK_GAIN -6.47 dB    REM REPLAYGAIN_TRACK_PEAK 0.907196    INDEX 00 04:37:73FILE "10 First Machines.flac" WAVE    INDEX 01 00:00:00  TRACK 11 AUDIO    TITLE "Optical Lifter"    REM REPLAYGAIN_TRACK_GAIN -6.86 dB    REM REPLAYGAIN_TRACK_PEAK 0.966187    INDEX 00 03:11:01FILE "11 Optical Lifter.flac" WAVE    INDEX 01 00:00:00  TRACK 12 AUDIO    TITLE "Mankind Goes Wrong"    REM REPLAYGAIN_TRACK_GAIN -4.75 dB    REM REPLAYGAIN_TRACK_PEAK 0.966248    INDEX 00 03:33:17FILE "12 Mankind Goes Wrong.flac" WAVE    INDEX 01 00:00:00  TRACK 13 AUDIO    TITLE "Planetary Sanctions"    REM REPLAYGAIN_TRACK_GAIN -7.81 dB    REM REPLAYGAIN_TRACK_PEAK 0.966248    INDEX 00 03:37:59FILE "13 Planetary Sanctions.flac" WAVE    INDEX 01 00:00:00  TRACK 14 AUDIO    TITLE "Silencer Tool"    REM REPLAYGAIN_TRACK_GAIN -4.98 dB    REM REPLAYGAIN_TRACK_PEAK 0.939545    INDEX 00 05:21:62FILE "14 Silencer Tool.flac" WAVE    INDEX 01 00:00:00  TRACK 15 AUDIO    TITLE "The Remorseful Day"    REM REPLAYGAIN_TRACK_GAIN -6.15 dB    REM REPLAYGAIN_TRACK_PEAK 0.966156    INDEX 00 00:59:47FILE "15 The Remorseful Day.flac" WAVE    INDEX 01 00:00:00  TRACK 16 AUDIO    TITLE "Historic Exhale"    REM REPLAYGAIN_TRACK_GAIN -6.32 dB    REM REPLAYGAIN_TRACK_PEAK 0.966278    INDEX 00 04:31:20FILE "16 Historic Exhale.flac" WAVE    INDEX 01 00:00:00

[BA007] Rxmode - Red Cards [2014]

Жанр: Techno, Electro
Продолжительность:00:29:5701. Red Cards (07:21)
02. No Bread (07:09)
03. Tears (07:09)
04. The Mines (08:18)

Лог проверки качества

-----------------------DON'T MODIFY THIS FILE-----------------------PERFORMER: auCDtect Task Manager, ver. 1.5.1RC6 build 1.5.1.7Copyright (c) 2008-2010 y-soft. All rights reservedhttp://y-soft.orgANALYZER: auCDtect: CD records authenticity detector, version 0.8.2Copyright (c) 2004 Oleg Berngardt. All rights reserved.Copyright (c) 2004 Alexander Djourik. All rights reserved.FILE: 04 The Mines.flac  Size: 57604878 Hash: 02213F3E961B3003E08E10D1A114D6E4 Accuracy: -m0  Conclusion: MPEG 95%  Signature: 5C0548B97AC9C435CD90E36FADBC938449444FACFILE: 03 Tears.flac  Size: 54028335 Hash: D66FD8B396B12514023B7D6017AD31A5 Accuracy: -m0  Conclusion: MPEG 95%  Signature: F2AD385056C25E4DBC7F6A1CB7E2EA461055FC42FILE: 02 No Bread.flac  Size: 47672084 Hash: C087605BF280D77AA114C2426DA7133F Accuracy: -m0  Conclusion: MPEG 95%  Signature: D3B9BAA2D188FC23EC1CDDCA4AAA91065E90B39EFILE: 01 Red Cards.flac  Size: 55068923 Hash: 8257A84DF4D6D432D896CDC425443602 Accuracy: -m0  Conclusion: MPEG 95%  Signature: 0482F8B3C2D70C66CA6F047453E17D7D5FB0505C

[BA008] Lectromagnetique - She Has No Body [2014]

Жанр: Techno, Electro
Продолжительность:00:12:0801. She (06:12)
02. No Body (05:56)

Лог проверки качества

-----------------------DON'T MODIFY THIS FILE-----------------------PERFORMER: auCDtect Task Manager, ver. 1.5.1RC6 build 1.5.1.7Copyright (c) 2008-2010 y-soft. All rights reservedhttp://y-soft.orgANALYZER: auCDtect: CD records authenticity detector, version 0.8.2Copyright (c) 2004 Oleg Berngardt. All rights reserved.Copyright (c) 2004 Alexander Djourik. All rights reserved.FILE: 02 No Body.flac  Size: 37319394 Hash: 370E75C004698EF733702F056A5B0E91 Accuracy: -m0  Conclusion: CDDA 100%  Signature: 07DA08F1F681D7B7341CFE4E47BDC569BC2E3D33FILE: 01 She.flac  Size: 32390482 Hash: F91FC30108FB1414E188400EDA0E2583 Accuracy: -m0  Conclusion: CDDA 100%  Signature: 8522F3493339FEF194114E5D9D1140280F0871C0

[BA009] Alavux - Ambience [2014]

Жанр: Techno, Electro
Продолжительность:00:22:1001. Ambience (06:29)
02. Goni Se (04:43)
03. Natural (07:05)
04. Wrist (03:53)

Лог проверки качества

-----------------------DON'T MODIFY THIS FILE-----------------------PERFORMER: auCDtect Task Manager, ver. 1.5.1RC6 build 1.5.1.7Copyright (c) 2008-2010 y-soft. All rights reservedhttp://y-soft.orgANALYZER: auCDtect: CD records authenticity detector, version 0.8.2Copyright (c) 2004 Oleg Berngardt. All rights reserved.Copyright (c) 2004 Alexander Djourik. All rights reserved.FILE: 04. Wrist.flac  Size: 29206845 Hash: 966329BE0861B6DAA4A1FB2AF1C08E60 Accuracy: -m0  Conclusion: CDDA 100%  Signature: 0CC012B19A05D81517C8CFB2A736E246CA2A8393FILE: 03. Natural.flac  Size: 51450666 Hash: C70C646D1F97D67058A49CCA082F8599 Accuracy: -m0  Conclusion: CDDA 100%  Signature: 4D850335D0A8F5EEED3DB73CDBE57F2DF8CBE1CBFILE: 02. Goni Se.flac  Size: 34783918 Hash: 8766B7DBAFF622FD755F1B5E8470CF11 Accuracy: -m0  Conclusion: CDDA 100%  Signature: 4CC4229F7AC6DD02F1A74ECC0E936953020B2557FILE: 01. Ambience.flac  Size: 52650589 Hash: 6556A2B960669AEF3CF97A00BCB8916A Accuracy: -m0  Conclusion: CDDA 100%  Signature: 5ECB330856FD787D57ACE13A01C97B1029CFF7D2

[BA010] Jay Mass - Second Law [2014]

Жанр: Techno, Electro
Продолжительность:00:39:2501. F-ma (05:31)
02. Mass (06:02)
03. Motion (04:32)
04. Force (05:44)
05. Signal (with DKM) (05:06)
06. Motion (Submorph remix) (07:30)
07. Force - DefBass (05:00)

Лог проверки качества

-----------------------DON'T MODIFY THIS FILE-----------------------PERFORMER: auCDtect Task Manager, ver. 1.5.1RC6 build 1.5.1.7Copyright (c) 2008-2010 y-soft. All rights reservedhttp://y-soft.orgANALYZER: auCDtect: CD records authenticity detector, version 0.8.2Copyright (c) 2004 Oleg Berngardt. All rights reserved.Copyright (c) 2004 Alexander Djourik. All rights reserved.FILE: 07. Force (DefBass Remix).flac  Size: 35137763 Hash: 0A907AFC5B0B6058CF08D103A9EB9575 Accuracy: -m0  Conclusion: CDDA 100%  Signature: 17D925667ED473CE7F15186041125AA09DBB9425FILE: 06. Motion (Submorph Remix).flac  Size: 56842729 Hash: 566FDBFB9901B67AC2C8307E5F3C7663 Accuracy: -m0  Conclusion: CDDA 100%  Signature: 3527C6F623F0455411E9FECA4D56235381BEF361FILE: 05. Signal.flac  Size: 34731228 Hash: 7F6750384A2D42A709B7D6A37ED77972 Accuracy: -m0  Conclusion: CDDA 94%  Signature: EB5B0F4A8A3E413146E5F23D094A97D833E3B7C5FILE: 04. Force.flac  Size: 31964412 Hash: 93D33734A09A157B8AFFFFD977B8B378 Accuracy: -m0  Conclusion: CDDA 100%  Signature: 96A208FCF249567BB5535FC3DC93193046B05BDEFILE: 03. Motion.flac  Size: 21656255 Hash: CC6D4C96E208AF480FE2C76DEF4EE4AA Accuracy: -m0  Conclusion: CDDA 92%  Signature: B285CD68E41F60E3878CFDE3D82FB6FAAAD13529FILE: 02. Mass.flac  Size: 45345897 Hash: 18A7F1866E9D6F315ED99E25A60FFB08 Accuracy: -m0  Conclusion: CDDA 100%  Signature: 68FF5743CBB1384EC4546467F68B15A0C9D2C759FILE: 01. F=ma.flac  Size: 37490857 Hash: 2867A20860D9F9BE8C920E049A8F02E9 Accuracy: -m0  Conclusion: CDDA 100%  Signature: 989D21BCCF126C5AF730AE1827467EC1E4697BEE

[BA011] w1b0 - Main Squeeze Remixes [2014]

Жанр: Techno, Electro
Продолжительность:00:39:2501. Main Squeeze (Original Version) (06:43)
02. Main Squeeze (Simplicity Is Beauty Remix) (05:50)
03. Main Squeeze (The Exaltics Remix) (05:23)
04. Main Squeeze (Boris Divider Remix) (06:22)
05. Main Squeeze (BS-1 Remix) (04:15)

Лог проверки качества

-----------------------DON'T MODIFY THIS FILE-----------------------PERFORMER: auCDtect Task Manager, ver. 1.5.1RC6 build 1.5.1.7Copyright (c) 2008-2010 y-soft. All rights reservedhttp://y-soft.orgANALYZER: auCDtect: CD records authenticity detector, version 0.8.2Copyright (c) 2004 Oleg Berngardt. All rights reserved.Copyright (c) 2004 Alexander Djourik. All rights reserved.FILE: 05. Main Squeeze (The Exaltics Remix).flac  Size: 39270043 Hash: C36AB348149CB1D1185DD3D675775BAD Accuracy: -m0  Conclusion: CDDA 100%  Signature: C6D339216E669CB1AB10D7580167308979CEDEAAFILE: 04. Main Squeeze (BS-1 remix).flac  Size: 30228159 Hash: A72BC77B9BA0B00DE0DA76A694BE2830 Accuracy: -m0  Conclusion: CDDA 100%  Signature: 3E489A05A873CE8BA727FB6FFAAFA1EAC9DCA07AFILE: 03. Main Squeeze (Simplicity Is Beauty remix).flac  Size: 38194054 Hash: DE84045F0898DD06BBBBD98E3B8917DF Accuracy: -m0  Conclusion: CDDA 99%  Signature: F29BE6D868761F9E244F0E0DE92A31D309EC1C78FILE: 02. Main Squeeze (Boris Divider remix).flac  Size: 47085412 Hash: 8C757626DD7C0AF336A1E21E9AAC1E9A Accuracy: -m0  Conclusion: CDDA 100%  Signature: E363B6000205F2079CA0F5EAFB6595A9F1655F6DFILE: 01. Main Squeeze.flac  Size: 50285399 Hash: 4D43EE43E745B3481146F82035569BA3 Accuracy: -m0  Conclusion: CDDA 100%  Signature: D12AE09FF12A77D551EE248D9645E7B91771825E

[BA012] Commuter - Digital Memories [2014]

Жанр: Techno, Electro
Продолжительность:00:18:0201. Foundation (04:43)
02. Modern Economy (03:38)
03. Digital Memories Part 1 (05:00)
04. Digital Memories Part 2 (04:41)

Лог проверки качества

-----------------------DON'T MODIFY THIS FILE-----------------------PERFORMER: auCDtect Task Manager, ver. 1.5.1RC6 build 1.5.1.7Copyright (c) 2008-2010 y-soft. All rights reservedhttp://y-soft.orgANALYZER: auCDtect: CD records authenticity detector, version 0.8.2Copyright (c) 2004 Oleg Berngardt. All rights reserved.Copyright (c) 2004 Alexander Djourik. All rights reserved.FILE: 04. Digital Memories Part 2.flac  Size: 28018839 Hash: 9C9E220991779E2324421BF2BEDD391E Accuracy: -m0  Conclusion: CDDA 99%  Signature: BD22D0829265D1407496A2DA68B42CFF856EEAE3FILE: 03. Digital Memories Part 1.flac  Size: 29750742 Hash: DA8FC10D8FB1C35437752D9DF2A6D84C Accuracy: -m0  Conclusion: CDDA 100%  Signature: 241DD4D6967F5A2822E2A44E927F0D45C29DDFB7FILE: 02. Modern Economy.flac  Size: 21669133 Hash: 92D48FAD71102A66B729A79EE25B07A8 Accuracy: -m0  Conclusion: CDDA 100%  Signature: 81C489E08C75E1A1B898368215FC452889B1F163FILE: 01. Foundation .flac  Size: 30959633 Hash: 4E58999993D27664E1FC5FDC3311E603 Accuracy: -m0  Conclusion: CDDA 100%  Signature: 0AB4F978EFE13183584A1CDB41F81485CFC2CDD9

[BA013] The Ghost That Walks - Invader Of The Grid [2014]

Жанр: Electro
Продолжительность:00:32:3201. Tazers in the Sun (05:32)
02. The Devil's Kiss (05:34)
03. The Fall of the Tower (05:02)
04. Master of Destiny (05:26)
05. Invader of the Grid (05:24)
06. Blood & Lace (05:34)

Лог проверки качества

[pre]-----------------------DON'T MODIFY THIS FILE-----------------------PERFORMER: auCDtect Task Manager, ver. 1.5.1RC6 build 1.5.1.7Copyright (c) 2008-2010 y-soft. All rights reservedhttp://y-soft.orgANALYZER: auCDtect: CD records authenticity detector, version 0.8.2Copyright (c) 2004 Oleg Berngardt. All rights reserved.Copyright (c) 2004 Alexander Djourik. All rights reserved.FILE: 06 Blood & Lace.flac Size: 38789460 Hash: BA4750AFAE91C7E4CD5BB357A338A6B3 Accuracy: -m0 Conclusion: MPEG 95% Signature: 1628480C8290171AD70191E4D51728557B9E608AFILE: 05 Invader of the Grid.flac Size: 42393624 Hash: B6796AF9D2CB80218DF7F538D30C4819 Accuracy: -m0 Conclusion: MPEG 95% Signature: 990D364559618DF0990517E98A84FE50E3A329BCFILE: 04 Master Of Destiny.flac Size: 38994719 Hash: FD67964EBD9DF0DC47ED460B92B37C16 Accu

Для скачки контента: [Установить программу-клиент] и кликнуть по - Скачать

[asmlocator.ru].t360356.torrent 
Торрент: Зарегистрирован [ 2017-07-10 13:50 ] · 104D219015D8A74962CDBC52EC9C0A5EB7C7B83D

Скачать .torrent

Скачать

107 KB

Статус: проверено
Скачан: 0 раз
Размер: 11,83 GB
terms.php
[Профиль] [ЛС]
Показать сообщения:    
Ответить на тему

Текущее время: 19-Окт 12:28

Часовой пояс: UTC ± 0



Вы не можете начинать темы
Вы не можете отвечать на сообщения
Вы не можете редактировать свои сообщения
Вы не можете удалять свои сообщения
Вы не можете голосовать в опросах
Вы не можете прикреплять файлы к сообщениям
Вы можете скачивать файлы