Замки и дворцы Европы (1-5 серии из 5) / Castles and Palaces of Europe (Джереми Фекете и Геро фон Бём /Jeremy JP Fekete & Gero von Boehm) [2013, документальный, история, архитектура, искусство, DVBRip]

Reply to topic
DL-List and Torrent activity
Size:  2.98 GB   |    Registered:  2 years 1 month   |    Completed:  1 time

Seeder not seen: 43 minutes

 
   
 
 
Author Message

star21 ®

Gender: Female

Longevity: 3 years 9 months

Posts: 551989

Location: Екатеринбург

Post 25-Jun-2017 13:15

[Quote]

Замки и дворцы Европы (1-5 серии из 5) / Castles and Palaces of Europe Дата/Год выпуска: 2013
Страна: Германия
Жанр: документальный, история, архитектура, искусство
Продолжительность: 5 серий по ~ 52 мин
Перевод: Профессиональный (двухголосый закадровый)
Доп. инфо о переводе: Компания «Игмар»
Русские субтитры: нетРежиссер: Джереми Фекете и Геро фон Бём /Jeremy JP Fekete & Gero von BoehmТелеканал: 365 дней ТВ
Описание: Документальный сериал о красивейших замках Европы, владельцы которых были королями или могли сравниться с любым монархом своим богатством и образованностью.
Ни в одной другой части мира не сосредоточено такое количество замков, как в Европе. Телезрителю предлагается путешествие по замкам и дворцам долины реки Луара во Франции, юга Германии, юга-востока Англии, итальянского Пьемонта и побережья Португалии.Сэмпл: http://multi-up.com/1156496качество: DVBRip
формат: AVI
Видео: Xvid 704x416 25fps 1499kbps
Аудио: MP3 48000Hz stereo 128kbps

Список выпусков/серий

1. Долина Луары во Франции / Loire Valley in France
2. Баден – Вюртемберг в Германии / Baden – Württemberg in Germany
3. Южная Англия / Southern England
4. Пьемонт в Италии / Piedmont in Italy
5. Эштремадура в Португалии / Estremadura in Portugal

MediaInfo

GeneralComplete name                  : F:\Замки и дворцы Европы\3. Южная Англия .aviFormat                         : AVIFormat/Info                    : Audio Video InterleaveFile size                      : 610 MiBDuration                       : 51mn 57sOverall bit rate               : 1 641 KbpsVideoID                             : 0Format                         : MPEG-4 VisualFormat profile                 : Advanced Simple@L5Format settings, BVOP          : 2Format settings, QPel          : NoFormat settings, GMC           : No warppointsFormat settings, Matrix        : Default (H.263)Codec ID                       : XVIDCodec ID/Hint                  : XviDDuration                       : 51mn 57sBit rate                       : 1 500 KbpsWidth                          : 704 pixelsHeight                         : 416 pixelsDisplay aspect ratio           : 1.692Frame rate                     : 25.000 fpsColor space                    : YUVChroma subsampling             : 4:2:0Bit depth                      : 8 bitsScan type                      : ProgressiveCompression mode               : LossyBits/(Pixel*Frame)             : 0.205Stream size                    : 557 MiB (91%)Writing library                : XviD 64AudioID                             : 1Format                         : MPEG AudioFormat version                 : Version 1Format profile                 : Layer 3Codec ID                       : 55Codec ID/Hint                  : MP3Duration                       : 51mn 57sSource duration                : 51mn 57sBit rate mode                  : ConstantBit rate                       : 128 KbpsChannel(s)                     : 2 channelsSampling rate                  : 48.0 KHzCompression mode               : LossyStream size                    : 47.6 MiB (8%)Alignment                      : Split accross interleavesInterleave, duration           : 24 ms (0.60 video frame)
Мои раздачи: архитектура, искусство, недвижимость http://rutracker.org/forum/tracker.php?rid=8171303

To download the content you need:
1. Download and install torrent client [for Windows] or for mobile system
2. Click on [Download]
Attention.
If the test YOU are NOT a ROBOT - does not work, then You are using an outdated browser.
Install the current browser and click on [Download]
Security: torrent client is allowed by Kaspersky.

[asmlocator.ru].t358120.torrent 
Torrent: Registered [ 2017-06-25 13:15 ] · 2B6CB01BCEFCA8009E790C502A087559E00F7C6F

Download .torrent

Download

16 KB

Status: checked
Completed: 1 times
Size: 2.98 GB
terms.php
[Profile] [PM]
Display posts:    
Reply to topic

Current time is: 22-Aug 08:23

All times are UTC ± 0



You cannot post new topics in this forum
You cannot reply to topics in this forum
You cannot edit your posts in this forum
You cannot delete your posts in this forum
You cannot vote in polls in this forum
You cannot attach files in this forum
You can download files in this forum