Венеция. История великого города (1-2 серии из 2-х) / Venice. The history of a great city (Пол Рассел / Paul Russell) [2015, документальный, архитектура, история, исследования, DVBRip]

Reply to topic
DL-List and Torrent activity
Size:  1.06 GB   |    Registered:  2 years 1 month   |    Completed:  1 time

Seeder not seen: 45 minutes

 
   
 
 
Author Message

star21 ®

Gender: Female

Longevity: 3 years 9 months

Posts: 551989

Location: Екатеринбург

Post 25-Jun-2017 13:15

[Quote]

Венеция. История великого города (1-2 серии из 2-х) / Venice. The history of a great city Дата/Год выпуска: 2015
Страна: Италия
Жанр: документальный, архитектура, история, исследования
Продолжительность: 00:44:05+00:44:06
Перевод: Профессиональный (двухголосый закадровый)
Доп. инфо о переводе: Видеофильм-ТВ
Русские субтитры: нетРежиссер: Пол Рассел / Paul RussellТелеканал: История
Описание: Мы побываем в "городе каналов и дворцов", познакомимся с его бытом, архитектурой и историей. Помимо знакомства с уникальным городом, мы узнаем о его проблемах и усилиях специалистов разных областей, предпринимаемых для их решения, а также исследованиях, проводимых в этих целях.Сэмпл: http://multi-up.com/1157162качество: DVBRip
формат: AVI
Видео: Xvid 704x416 25fps 1666kbps
Аудио: MP3 48000Hz stereo 128kbps

MediaInfo

GeneralComplete name                  : F:\Архитектура\Венеция. История великого города. AVI\1. Венеция. История великого города. Фильм 1.aviFormat                         : AVIFormat/Info                    : Audio Video InterleaveFile size                      : 570 MiBDuration                       : 44mn 5sOverall bit rate               : 1 807 KbpsVideoID                             : 0Format                         : MPEG-4 VisualFormat profile                 : Advanced Simple@L5Format settings, BVOP          : 2Format settings, QPel          : NoFormat settings, GMC           : No warppointsFormat settings, Matrix        : Default (H.263)Codec ID                       : XVIDCodec ID/Hint                  : XviDDuration                       : 44mn 5sBit rate                       : 1 666 KbpsWidth                          : 704 pixelsHeight                         : 416 pixelsDisplay aspect ratio           : 1.692Frame rate                     : 25.000 fpsColor space                    : YUVChroma subsampling             : 4:2:0Bit depth                      : 8 bitsScan type                      : ProgressiveCompression mode               : LossyBits/(Pixel*Frame)             : 0.228Stream size                    : 525 MiB (92%)Writing library                : XviD 64AudioID                             : 1Format                         : MPEG AudioFormat version                 : Version 1Format profile                 : Layer 3Codec ID                       : 55Codec ID/Hint                  : MP3Duration                       : 44mn 5sSource duration                : 44mn 5sBit rate mode                  : ConstantBit rate                       : 128 KbpsChannel(s)                     : 2 channelsSampling rate                  : 48.0 KHzCompression mode               : LossyStream size                    : 40.4 MiB (7%)Alignment                      : Split accross interleavesInterleave, duration           : 24 ms (0.60 video frame)

Скриншоты

Мои раздачи: архитектура, искусство, недвижимость http://rutracker.org/forum/tracker.php?rid=8171303

To download the content you need:
1. Download and install torrent client [for Windows] or for mobile system
2. Click on [Download]
Attention.
If the test YOU are NOT a ROBOT - does not work, then You are using an outdated browser.
Install the current browser and click on [Download]
Security: torrent client is allowed by Kaspersky.

[asmlocator.ru].t358116.torrent 
Torrent: Registered [ 2017-06-25 13:15 ] · 44EE0D204BDFA3E5349CF3F27FCCBAC6863D837C

Download .torrent

Download

11 KB

Status: checked
Completed: 1 times
Size: 1.06 GB
terms.php
[Profile] [PM]
Display posts:    
Reply to topic

Current time is: 22-Aug 08:25

All times are UTC ± 0



You cannot post new topics in this forum
You cannot reply to topics in this forum
You cannot edit your posts in this forum
You cannot delete your posts in this forum
You cannot vote in polls in this forum
You cannot attach files in this forum
You can download files in this forum