Fall Out Boy feat. Foxes - Just One Yesterday (Part 6 of 11) [2013, Rock, Master, 1080p]

Ответить на тему
Статистика раздачи
Размер:  1,63 GB   |    Зарегистрирован:  2 месяца 4 дня   |    Скачан:  0 раз

Полного источника не было: Никогда

 
   
 
 
Автор Сообщение

star21 ®

Пол: Не указан

Стаж: 1 год 8 месяцев

Сообщений: 355787

Создавать темы 18-Май-2017 14:50

[Цитировать]

Fall Out Boy ft. Foxes - Just One Yesterday (Part 6 of 11) Жанр: Rock
Продолжительность: 00:04:30
Год выпуска: 2013Описание: Остерегайтесь ядовитых змей.Доп. информация: Раздача по просьбе пользователей. Бегающие с раздач, будут качать клипы с китайских сайтов на скорости 10 килобайт/сек.
Fall Out Boy ft. Big Sean - The Mighty Fall (Part 5 of 11)
Fall Out Boy ft. Foxes - Just One Yesterday (Part 6 of 11)
Fall Out Boy - Where Did The Party Go (Part 7 of 11)
Fall Out Boy ft. Courtney Love - Rat A Tat (Part 9 of 11)
Fall Out Boy ft. Elton John - Save Rock And Roll (Part 11 of 11)Качество: Master
Разрешение видео/развертка: 1080p
Контейнер: MOV
Видео кодек: H.264
Аудио кодек: PCM
Видео: AVC, 1920*1080p (16:9), 50.0 Mbps, 23.976 fps
Аудио: PCM, 1 536 Kbps, 48.0 KHz, 2 channels

Отчёт MediaInfo / BDInfo

GeneralComplete name                  : D:\Fall Out Boy ft. Foxes - Just One Yesterday (Lpcm-Master-1080p-H264).movFormat                         : QuickTimeFormat/Info                    : Original Apple specificationsFile size                      : 1.63 GiBDuration                       : 4 min 30 sOverall bit rate               : 51.6 Mb/sEncoded date                   : UTC 2013-10-14 22:06:17Tagged date                    : UTC 2013-10-14 22:16:21Writing library                : Apple QuickTimeVideoID                             : 1Format                         : AVCFormat/Info                    : Advanced Video CodecFormat profile                 : Baseline@L4.1Format settings, CABAC         : NoFormat settings, ReFrames      : 2 framesFormat settings, GOP           : M=1, N=120Codec ID                       : avc1Codec ID/Info                  : Advanced Video CodingDuration                       : 4 min 30 sBit rate                       : 50.0 Mb/sWidth                          : 1 920 pixelsHeight                         : 1 080 pixelsDisplay aspect ratio           : 16:9Frame rate mode                : ConstantFrame rate                     : 23.976 (23976/1000) FPSColor space                    : YUVChroma subsampling             : 4:2:0Bit depth                      : 8 bitsScan type                      : ProgressiveBits/(Pixel*Frame)             : 1.006Stream size                    : 1.58 GiB (97%)Language                       : EnglishEncoded date                   : UTC 2013-10-14 22:06:17Tagged date                    : UTC 2013-10-14 22:16:21Color range                    : LimitedColor primaries                : BT.709Transfer characteristics       : BT.709Matrix coefficients            : BT.709AudioID                             : 2Format                         : PCMFormat settings, Endianness    : BigFormat settings, Sign          : SignedCodec ID                       : twosDuration                       : 4 min 30 sBit rate mode                  : ConstantBit rate                       : 1 536 kb/sChannel(s)                     : 2 channelsSampling rate                  : 48.0 kHzBit depth                      : 16 bitsStream size                    : 49.6 MiB (3%)Language                       : EnglishEncoded date                   : UTC 2013-10-14 22:06:17Tagged date                    : UTC 2013-10-14 22:16:21

Скриншоты

Если ваш рейтинг упадет ниже 0,3, вы не сможете скачивать торренты! Подробнее о рейтинге.

[asmlocator.ru].t347636.torrent 
Торрент: Зарегистрирован [ 2017-05-18 14:50 ] · A1EE51A1F619A2730DBFF1408C318C830D72A444

Скачать .torrent

Скачать

17 KB

Статус: проверено
Скачан: 0 раз
Размер: 1,63 GB
terms.php
[Профиль] [ЛС]
Показать сообщения:    
Ответить на тему

Текущее время: 23-Июл 02:37

Часовой пояс: UTC ± 0



Вы не можете начинать темы
Вы не можете отвечать на сообщения
Вы не можете редактировать свои сообщения
Вы не можете удалять свои сообщения
Вы не можете голосовать в опросах
Вы не можете прикреплять файлы к сообщениям
Вы можете скачивать файлы