Имитатор (Олег Фиалко) [1990, комедия, TVRip]

Ответить на тему
Статистика раздачи
Размер:  923 MB   |    Зарегистрирован:  3 месяца 1 день   |    Скачан:  0 раз

Полного источника не было: Никогда

 
   
 
 
Автор Сообщение

star21 ®

Пол: Не указан

Стаж: 1 год 9 месяцев

Сообщений: 355778

Создавать темы 18-Май-2017 12:10

[Цитировать]

Имитатор Год выпуска: 1990.
Жанр: Комедия.
Продолжительность: 01:28:36.Режиссер: Олег Фиалко.В ролях:
Игорь Скляр, Наталья Лапина, Алексей Жарков, Людмила Гурченко, Людмила Лобза, Сергей Сивохо, Эрнст Романов, Петр Сорокин, Ирен Азер, Богдан Бенюк.Описание:
Используя телефонный аппарат и недюжинные способности общения с людьми (имитация голосов - это только необходимая частность), предприимчивый молодой человек посвящает себя бизнесу... Начав свою картину как забавную бытовую комедию, с каждым эпизодом постепенно форсируя элементы гротеска, авторы фильма довели его до апофеоза абсурдности нашей действительности.Доп. информация:
Местами появляется невырезанная реклама в виде субтитров.Страна: СССР .
Выпущено: Киностудия им. Александра Довженко.Авторы сценария: Олег Фиалко, Виктор Копылец, Вячеслав Лейкин.
Оператор: Александр Золотарев.
Композитор: Вячеслав Назаров.
Художник: Вячеслав Ершов. Качество: DVDRip
Формат: AVIВидео: 704x528 (1.33:1), 25 fps, XviD MPEG-4 ~1319 kbps avg, 0.14 bit/pixel
Аудио: 48 kHz, MPEG Layer 3, 2 ch, ~128.00 kbps avg

MediaInfo

Код:
Общее
Полное имя : E:\Downloads\Imitator.1990.XviD.TVRip.avi
Формат : AVI
Формат/Информация : Audio Video Interleave
Размер файла : 923 Мбайт
Продолжительность : 1 ч. 28 м.
Общий поток : 1457 Кбит/секВидео
Идентификатор : 0
Формат : MPEG-4 Visual
Профиль формата : Advanced Simple@L5
Параметр BVOP формата : 2
Параметр QPel формата : Нет
Параметр GMC формата : Без точки перехода
Параметр матрицы формата : Default (H.263)
Идентификатор кодека : XVID
Идентификатор кодека/Подсказка : XviD
Продолжительность : 1 ч. 28 м.
Битрейт : 1319 Кбит/сек
Ширина : 704 пикселя
Высота : 528 пикселей
Соотношение сторон : 4:3
Частота кадров : 25,000 кадров/сек
Цветовое пространство : YUV
Субдискретизация насыщенности : 4:2:0
Битовая глубина : 8 бит
Тип развёртки : Прогрессивная
Метод сжатия : С потерями
Бит/(Пиксели*Кадры) : 0.142
Размер потока : 836 Мбайт (91%)
Библиотека кодирования : XviD 1.2.0.dev47 (UTC 2006-11-01)Аудио
Идентификатор : 1
Формат : MPEG Audio
Версия формата : Version 1
Профиль формата : Layer 3
Режим : Joint stereo
Расширение режима : MS Stereo
Идентификатор кодека : 55
Идентификатор кодека/Подсказка : MP3
Продолжительность : 1 ч. 28 м.
Вид битрейта : Постоянный
Битрейт : 128 Кбит/сек
Каналы : 2 канала
Частота : 48,0 КГц
Метод сжатия : С потерями
Размер потока : 81,1 Мбайт (9%)
Выравнивание : Разделение по промежуткам
Продолжительность промежутка : 40 мс. (1,00 видеокадр)
Время предзагрузки промежутка : 500 мс.

Скриншоты

Альтернативный хост

Для скачки контента: [Установить программу-клиент] и кликнуть по - Скачать

[asmlocator.ru].t347560.torrent 
Торрент: Зарегистрирован [ 2017-05-18 12:10 ] · 325B3B4CD25E25C3D2354BF9D0BE72905B494FBA

Скачать .torrent

Скачать

18 KB

Статус: проверено
Скачан: 0 раз
Размер: 923 MB
terms.php
[Профиль] [ЛС]
Показать сообщения:    
Ответить на тему

Текущее время: 20-Авг 09:46

Часовой пояс: UTC ± 0



Вы не можете начинать темы
Вы не можете отвечать на сообщения
Вы не можете редактировать свои сообщения
Вы не можете удалять свои сообщения
Вы не можете голосовать в опросах
Вы не можете прикреплять файлы к сообщениям
Вы можете скачивать файлы