Массаж. Курс для начинающих / The Massage Video: The Practical Guide To Massage Technique [2007, DVDRip]

Ответить на тему
Статистика раздачи
Размер:  350 MB   |    Зарегистрирован:  6 месяцев 6 дней   |    Скачан:  0 раз

Полного источника не было: 3 дня

 
   
 
 
Автор Сообщение

star21 ®

Пол: Не указан

Стаж: 2 года

Сообщений: 355767

Создавать темы 17-Май-2017 21:35

[Цитировать]

Массаж для начинающих (2007) DVDRip Год выпуска: 2007
Страна: США
Продолжительность: 47 мин
Перевод: Профессиональный (полное дублирование)В ролях: Грег ХаммондОписание: Представляем вашему вниманию гид по массажу - идеальное средство для повышения общего тонуса вашего тела. Опытный инструктор Грег Хаммонд, бакалавр в области анатомии, психологии и мануальной терапии, расскажет и наглядно продемонстрирует простоту освоения этого искусства. Освоение этого курса научит вас снимать стресс, усталость и дискомфорт с ваших мышц.Качество: DVDRip
Формат: AVI
Видео: DivX 5 496x368 25fps
Аудио: MPEG Layer 3, 2 ch; 128 kbps, 44.1 kHz

Скриншоты

Тех. данные

GeneralFormat                         : AVIFormat/Info                    : Audio Video InterleaveFile size                      : 350 MiBDuration                       : 46 min 40 sOverall bit rate               : 1 049 kb/sWriting application            : VirtualDubMod 1.5.4.1 (build 2178/release)Writing library                : VirtualDubMod build 2178/releaseVideoID                             : 0Format                         : MPEG-4 VisualFormat settings, BVOP          : 1Format settings, QPel          : NoFormat settings, GMC           : No warppointsFormat settings, Matrix        : Default (H.263)Muxing mode                    : Packed bitstreamCodec ID                       : DX50Codec ID/Hint                  : DivX 5Duration                       : 46 min 40 sBit rate                       : 914 kb/sNominal bit rate               : 1 128 kb/sWidth                          : 496 pixelsHeight                         : 368 pixelsDisplay aspect ratio           : 4:3Frame rate                     : 25.000 FPSColor space                    : YUVChroma subsampling             : 4:2:0Bit depth                      : 8 bitsScan type                      : ProgressiveCompression mode               : LossyBits/(Pixel*Frame)             : 0.200Stream size                    : 305 MiB (87%)Writing library                : DivX 1974AudioID                             : 1Format                         : MPEG AudioFormat version                 : Version 1Format profile                 : Layer 3Mode                           : Joint stereoMode extension                 : MS StereoCodec ID                       : 55Codec ID/Hint                  : MP3Duration                       : 46 min 39 sBit rate mode                  : ConstantBit rate                       : 128 kb/sChannel(s)                     : 2 channelsSampling rate                  : 48.0 kHzCompression mode               : LossyStream size                    : 42.7 MiB (12%)Alignment                      : Aligned on interleavesInterleave, duration           : 80  ms (2.00 video frames)Interleave, preload duration   : 504  msWriting library                : LAME3.97bEncoding settings              : -m j -V 4 -q 2 -lowpass 17 -b 128

Для скачки контента: [Установить программу-клиент] и кликнуть по - Скачать

[asmlocator.ru].t347483.torrent 
Торрент: Зарегистрирован [ 2017-05-17 21:35 ] · 7673EBD762AA025A9F86A0808EF994085F113212

Скачать .torrent

Скачать

14 KB

Статус: проверено
Скачан: 0 раз
Размер: 350 MB
terms.php
[Профиль] [ЛС]
Показать сообщения:    
Ответить на тему

Текущее время: 24-Ноя 03:59

Часовой пояс: UTC ± 0



Вы не можете начинать темы
Вы не можете отвечать на сообщения
Вы не можете редактировать свои сообщения
Вы не можете удалять свои сообщения
Вы не можете голосовать в опросах
Вы не можете прикреплять файлы к сообщениям
Вы можете скачивать файлы