[Детский аудиоспектакль] Ливанов Василий, Энтин Юрий: Бременские музыканты ● По следам бременских музыкантов (Два издания: 1996 и 2003 г.) [Олег Анофриев, Эльмира Жерздева, Олег Табаков, Муслим Магомаев, 1968, 1973, lossless, WavPack]

Ответить на тему
Статистика раздачи
Размер:  575 MB   |    Зарегистрирован:  2 месяца 5 дней   |    Скачан:  0 раз

Полного источника не было: Никогда

 
   
 
 
Автор Сообщение

star21 ®

Пол: Не указан

Стаж: 1 год 8 месяцев

Сообщений: 355787

Создавать темы 17-Май-2017 21:35

[Цитировать]

Бременские музыканты ● По следам бременских музыкантовГод записи аудиоспектакля: 1968, 1973
Авторы: Василий Ливанов, Юрий Энтин
Музыка: Геннадий Гладков
Режиссёр: Василий Ливанов
Жанр: Аудиоспектакль
Аудиокодек: WavPack
Тип рипа: image+.cue
Битрейт: lossless
Источник: ley-barmaley / lossless-galaxy
Сканирование: full scans (JPG, 450dpi)Исполнители:
От автора, Трубадур, Атаманша и другие - Олег Анофриев
Принцесса - Эльмира Жерздева
Оркестр п/у Геннадия Гладкова
● ● ●
От автора - Олег Табаков
Принцесса - Эльмира Жерздева
Трубадур, Сыщик, Атаманша - Муслим Магомаев
Король - Геннадий Гладков
Анатолий Горохов и вокальный ансамбль
Инструментальный ансамбль п/у Константина Кримца Издатель, номер по каталогу: Extraphone, ExD 96005
Производитель диска: Czech Republic
Год выпуска CD: 1996
Время звучания: 0:50:19

EAC log

Exact Audio Copy V1.0 beta 3 from 29. August 2011Отчёт EAC об извлечении, выполненном 23. марта 2017, 19:40Различные исполнители / Бременские музыканты (ExD 96005)Дисковод: ASUS    CRW-5232AS   Adapter: 0  ID: 0Режим чтения                 : ДостоверностьИспользование точного потока : ДаОтключение кэша аудио        : ДаИспользование указателей C2  : НетКоррекция смещения при чтении                     : 6Способность читать области Lead-in и Lead-out     : НетЗаполнение пропущенных сэмплов тишиной            : ДаУдаление блоков с тишиной в начале и конце        : НетПри вычислениях CRC использовались нулевые сэмплы : ДаИнтерфейс                                         : Встроенный Win32-интерфейс для Win NT/2000Выходной формат : Внутренние WAV-операцииФормат сэмплов  : 44.100 Гц; 16 бит; стереоTOC извлечённого CD     Трек |   Старт  | Длительность | Начальный сектор | Конечный сектор    ---------------------------------------------------------------------       1  |  0:00.00 |   13:02.08   |           0      |      58657       2  | 13:02.08 |   12:27.33   |       58658      |     114715       3  | 25:29.41 |   13:21.68   |      114716      |     174858       4  | 38:51.34 |   11:27.24   |      174859      |     226407Характеристики диапазона извлечения и сообщения об ошибкахВыбранный диапазон     Имя файла G:\ley-barmaley\музыкальные сказки на сайте lossless-galaxy.ru\Бременские музыканты (ExD 96005).wav     Пиковый уровень 100.0 %     Скорость извлечения 8.5 X     Качество диапазона 100.0 %     CRC теста 7B3A3E60     CRC копии 7B3A3E60     Копирование... OKОшибок не произошлоAccurateRip: сводкаТрек  1  точность не определена (достоверность 1)  [5C5B83BF], AccurateRip вернул [A9DA0CD0]  (AR v2)Трек  2  точность не определена (достоверность 1)  [DFABB0D1], AccurateRip вернул [524D5E5D]  (AR v2)Трек  3  точность не определена (достоверность 1)  [4DADD99F], AccurateRip вернул [A1D156D0]  (AR v2)Трек  4  точность не определена (достоверность 1)  [83E0429F], AccurateRip вернул [BF756BE2]  (AR v2)Ни один трек не прошёл проверки на точностьВ вашей базе может быть иной вариант штамповки дискаКонец отчёта---- CUETools DB Plugin V2.1.3[CTDB TOCID: OjGVea1qMFGPlYjB8TOndS6WehI-] disk not present in database, Submit result: OjGVea1qMFGPlYjB8TOndS6WehI- has been uploaded==== Контрольная сумма отчёта 65D7356B9080C37CE3DC84099D72D0D5A6C28BEFA9DA520F3C9E8622BE3C7F96 ====

Dynamic Range Meter


foobar2000 1.3.8 / Dynamic Range Meter 1.1.1log date: 2017-03-23 19:49:52--------------------------------------------------------------------------------Analyzed: От автора - Олег Табаков; Принцесса - Эльмира Жерздева; Трубадур, Сыщик, Атаманша - Муслим Магомаев; Король - Геннадий Гладков / Бременские музыканты (Extraphone, ExD 96005)--------------------------------------------------------------------------------DR         Peak         RMS     Duration Track--------------------------------------------------------------------------------DR14       0.00 dB   -17.64 dB     13:22 03-По следам Бременских музыкантов. Часть 1DR12      -1.28 dB   -16.77 dB     11:27 04-По следам Бременских музыкантов. Часть 2--------------------------------------------------------------------------------Number of tracks:  2Official DR value: DR13Samplerate:        44100 HzChannels:          2Bits per sample:   16Bitrate:           715 kbpsCodec:             WavPack================================================================================--------------------------------------------------------------------------------Analyzed: От автора, Трубадур, Атаманша и другие -  Олег Анофриев; Принцесса - Эльмира Жерздева / Бременские музыканты (Extraphone, ExD 96005)--------------------------------------------------------------------------------DR         Peak         RMS     Duration Track--------------------------------------------------------------------------------DR12       0.00 dB   -14.82 dB     13:02 01-Бременские музыканты. Часть 1DR12      -0.33 dB   -15.39 dB     12:27 02-Бременские музыканты. Часть 2--------------------------------------------------------------------------------Number of tracks:  2Official DR value: DR12Samplerate:        44100 HzChannels:          2Bits per sample:   16Bitrate:           715 kbpsCodec:             WavPack================================================================================

auCDtect

-----------------------DON'T MODIFY THIS FILE-----------------------PERFORMER: auCDtect Task Manager, ver. 1.6.0 RC1 build 1.6.0.1Copyright (c) 2008-2010 y-soft. All rights reservedhttp://y-soft.orgANALYZER: auCDtect: CD records authenticity detector, version 0.8.2Copyright (c) 2004 Oleg Berngardt. All rights reserved.Copyright (c) 2004 Alexander Djourik. All rights reserved.FILE: Бременские музыканты (ExD 96005).wv  Size: 269923518 Hash: D6F0B83C659A834EEC0F48A81FC5A886 Accuracy: -m0  Conclusion: CDDA 100%  Signature: B55EA859412AB85CF8621B2C12F0BF6166D22A43FILE: Бременские музыканты (ExD 96005).wav  Size: 532511660 Hash: D6F0B83C659A834EEC0F48A81FC5A886 Accuracy: -m0  Conclusion: CDDA 100%  Signature: 3921F9387BC540B487DE4306D6EF37EF2B965035

Издатель, номер по каталогу: Росмэн-Аудио, PA 23 01 CD
Производитель диска: Россия
Год выпуска CD: 2003
Время звучания: 0:50:12

EAC log

Exact Audio Copy V1.0 beta 3 from 29. August 2011Отчёт EAC об извлечении, выполненном 13. апреля 2017, 18:40Различные исполнители / Бременские музыканты (PA 23 01 CD)Дисковод: ASUS    DRW-1814BL   Adapter: 0  ID: 0Режим чтения                 : ДостоверностьИспользование точного потока : ДаОтключение кэша аудио        : ДаИспользование указателей C2  : НетКоррекция смещения при чтении                     : 6Способность читать области Lead-in и Lead-out     : НетЗаполнение пропущенных сэмплов тишиной            : ДаУдаление блоков с тишиной в начале и конце        : НетПри вычислениях CRC использовались нулевые сэмплы : ДаИнтерфейс                                         : Встроенный Win32-интерфейс для Win NT/2000Выходной формат : Внутренние WAV-операцииФормат сэмплов  : 44.100 Гц; 16 бит; стереоTOC извлечённого CD     Трек |   Старт  | Длительность | Начальный сектор | Конечный сектор    ---------------------------------------------------------------------       1  |  0:00.00 |   13:06.19   |           0      |      58968       2  | 13:06.19 |   12:19.55   |       58969      |     114448       3  | 25:25.74 |   11:44.09   |      114449      |     167257       4  | 37:10.08 |   13:02.27   |      167258      |     225934Характеристики диапазона извлечения и сообщения об ошибкахВыбранный диапазон     Имя файла G:\ley-barmaley\музыкальные сказки на сайте lossless-galaxy.ru\Бременские музыканты (PA 23 01 CD).wav     Пиковый уровень 99.9 %     Скорость извлечения 7.8 X     Качество диапазона 100.0 %     CRC теста C0963DA0     CRC копии C0963DA0     Копирование... OKОшибок не произошлоAccurateRip: сводкаТрек  1  : извлечено точно (доверие 1)  [F286BF3C]  (AR v2)Трек  2  : извлечено точно (доверие 1)  [9141EEB4]  (AR v2)Трек  3  : извлечено точно (доверие 1)  [1FEA56E3]  (AR v2)Трек  4  : извлечено точно (доверие 1)  [BAA75DEB]  (AR v2)Все треки извлечены точноКонец отчёта---- CUETools DB Plugin V2.1.3[CTDB TOCID: XL5Oe43v2jcJ7L.ySANJPFsGl3Y-] found, Submit result: XL5Oe43v2jcJ7L.ySANJPFsGl3Y- has been confirmed[2d88d64a] (1/1) Accurately ripped==== Контрольная сумма отчёта 5074716F3274157073CEC1F63BF495B281B341962D211F639F2B2445F0592FC1 ====

Dynamic Range Meter


foobar2000 1.3.8 / Dynamic Range Meter 1.1.1log date: 2017-04-13 18:43:16--------------------------------------------------------------------------------Analyzed: От автора - Олег Табаков; Принцесса - Эльмира Жерздева; Трубадур, Сыщик, Атаманша - Муслим Магомаев; Король - Геннадий Гладков / Бременские музыканты (Росмэн-Аудио, PA 23 01 CD)--------------------------------------------------------------------------------DR         Peak         RMS     Duration Track--------------------------------------------------------------------------------DR15      -1.44 dB   -19.73 dB     11:44 03-По следам Бременских музыкантов. Часть 1DR15       0.00 dB   -19.26 dB     13:02 04-По следам Бременских музыкантов. Часть 2--------------------------------------------------------------------------------Number of tracks:  2Official DR value: DR15Samplerate:        44100 HzChannels:          2Bits per sample:   16Bitrate:           767 kbpsCodec:             WavPack================================================================================--------------------------------------------------------------------------------Analyzed: От автора, Трубадур, Атаманша и другие -  Олег Анофриев; Принцесса - Эльмира Жерздева / Бременские музыканты (Росмэн-Аудио, PA 23 01 CD)--------------------------------------------------------------------------------DR         Peak         RMS     Duration Track--------------------------------------------------------------------------------DR14      -0.18 dB   -17.33 dB     13:06 01-Бременские музыканты. Часть 1DR13       0.00 dB   -16.47 dB     12:20 02-Бременские музыканты. Часть 2--------------------------------------------------------------------------------Number of tracks:  2Official DR value: DR13Samplerate:        44100 HzChannels:          2Bits per sample:   16Bitrate:           767 kbpsCodec:             WavPack================================================================================

auCDtect

-----------------------DON'T MODIFY THIS FILE-----------------------PERFORMER: auCDtect Task Manager, ver. 1.6.0 RC1 build 1.6.0.1Copyright (c) 2008-2010 y-soft. All rights reservedhttp://y-soft.orgANALYZER: auCDtect: CD records authenticity detector, version 0.8.2Copyright (c) 2004 Oleg Berngardt. All rights reserved.Copyright (c) 2004 Alexander Djourik. All rights reserved.FILE: Бременские музыканты (PA 23 01 CD).wv  Size: 288961378 Hash: 297A322E89111E2FBB08F72E041CED2D Accuracy: -m0  Conclusion: CDDA 100%  Signature: 964CF2A72BF60AA6CC3F5042CF72A5795391A4E2FILE: Бременские музыканты (PA 23 01 CD).wav  Size: 531399164 Hash: 297A322E89111E2FBB08F72E041CED2D Accuracy: -m0  Conclusion: CDDA 100%  Signature: 449B098CB4B7A1EA01766DD7382FD80D1E846A55

Уважаемые владельцы пластинок, в ваших руках - конверт. В конверте лежит пластинка. А на пластинке на длинной-длинной вьющейся дорожке записана одна чрезвычайно интересная история. Её придумали для вас Василий Ливанов, Юрий Энтин и композитор Геннадий Гладков, и называется она "Бременские музыканты", так же, как и хорошо знакомая вам сказка братьев Гримм. В обработке молодых авторов эта старинная сказка засверкала новыми современными красками.
Я просто уверен, ребята, что вам очень понравится её главный герой - энергичный и неунывающий юный Трубадур. Что у вас вызовут симпатии друзья Трубадура, великие артисты того времени - Пёс, Осёл, Кот и голосистый Петух. Что все вы будете смеяться над недалёким и глупым "его Чванличеством" королём и его разудалой стражей. А ужасные и невероятно опасные разбойники во главе с грозной атаманшей вам совсем не покажутся страшными.
Между прочим, если бы я вам не сказал, вы ни за что бы не поверили, что почти все эти сложные и такие разные роли играет всего один человек - артист Олег Анофриев.
И ещё вам, наверное, интересно будет узнать, что существует мультипликационный фильм "Бременские музыканты", созданный режиссёром Инессой Ковалевской на сюжет сказки В. Ливанова и Ю. Энтина, который вы сможете посмотреть.
Вот и всё, ребята. А теперь слушайте сказку.
/Эдуард Успенский/ ● Аннотация к пластинке "Бременские музыканты" (Мелодия, 33Д 24707-8)● ● ●ВСЕМ ДРУЗЬЯМ БРЕМЕНСКИХ МУЗЫКАНТОВ
Дорогие ребята! Папы и мамы!
Вы купили эту пластинку и правильно сделали. А если ещё не купили, а держите в руках в магазине, то немедленно покупайте. И вот почему.
Несколько лет тому назад в продаже появилась пластинка "Бременские музыканты". А на экранах – мультипликационный фильм с таким же названием. Я тогда советовал вам купить эту пластинку и оказался прав. Она так понравилась и детям, и взрослым, что скоро все до одной пластинки были раскуплены. И ведь они не пылились в шкафу, а игрались во всех домах и квартирах. Уж больно весела была сказка и задорны песни в ней.
Придумали эту сказку два весёлых человека и один очень весёлый. Весёлые – это поэт Юрий Энтин и режиссёр Василий Ливанов, а очень весёлый – это композитор Геннадий Гладков.
И вот они написали новую историю. Если вы думаете, что за это время они поскучнели, вы ошибаетесь. Весёлые стали ещё веселее, а очень весёлый – композитор Геннадий Гладков – настолько развеселился, что сам стал петь как актёр. Он выступает в роли короля. Роли сыщика, трубадура и атаманши исполняет Муслим Магомаев.
А теперь ставьте пластинку на проигрыватель и приглашайте на сказку своих лучших друзей.
/Э. Успенский/ ● Аннотация к пластинке "По следам бременских музыкантов" (Мелодия, 33Д 35003-4) Новые бременские
Другие аудиоспектакли

Если ваш рейтинг упадет ниже 0,3, вы не сможете скачивать торренты! Подробнее о рейтинге.

[asmlocator.ru].t347482.torrent 
Торрент: Зарегистрирован [ 2017-05-17 21:35 ] · E72425023C70FD0094DBB3A3DDD1ECD15A10EED7

Скачать .torrent

Скачать

15 KB

Статус: проверено
Скачан: 0 раз
Размер: 575 MB
terms.php
[Профиль] [ЛС]
Показать сообщения:    
Ответить на тему

Текущее время: 23-Июл 02:37

Часовой пояс: UTC ± 0



Вы не можете начинать темы
Вы не можете отвечать на сообщения
Вы не можете редактировать свои сообщения
Вы не можете удалять свои сообщения
Вы не можете голосовать в опросах
Вы не можете прикреплять файлы к сообщениям
Вы можете скачивать файлы