Карелия 3Д / 3D [2017, видовой, любительская съемка, HDrip, 1080i] Half SideBySide / Горизонтальная анаморфная стереопара

Ответить на тему
Статистика раздачи
Размер:  6,51 GB   |    Зарегистрирован:  2 месяца 21 день   |    Скачан:  0 раз

Полного источника не было: 2 месяца 7 дней

 
   
 
 
Автор Сообщение

star21 ®

Пол: Не указан

Стаж: 1 год 8 месяцев

Сообщений: 355787

Создавать темы 01-Май-2017 22:20

[Цитировать]

Карелия
Год выпуска: 2017
Страна: Россия
Жанр: видовой, любительская съемка
Продолжительность: 5 частей
Перевод: Не требуется
Описание: Видео, отснятое во время летнего путешествия по Карелии в августе 2016 г. На высокую художественную ценность не претендует, просто обычное любительское видео на память и для общего представления о регионе.
Анаморфный формат для воспроизведения на телевизорах. Исходная полноразмерная версия тут.
1. Рускеальские водопады и бывший Рускеальский мраморный карьер, он же, Горный парк "Рускеала". (7 мин)
2. "Ладожские шхеры" Планируемый нац. парк на севере Ладожского озера. (16 мин)
3. Сплав на байдарках по реке Янис (Янисйоки). Короткий рафтинг по р. Шуя. Водопад Кивач на реке Суна (государственный природный заповедник). (12 мин)
4. Музей-заповедник "Кижи". На одноименном острове в Онежском озере. (9 мин)
5. Музей-заповедник "Соловки". Большой Соловецкий остров. Соловецкий монастырь и ботанический сад. (Архангельская область, Белое море) (17 мин)
Качество: HDTVrip
Контейнер: MKV
Формат 3D: Half SideBySide / Горизонтальная анаморфная стереопара
Порядок ракурсов: левый ракурс первый
Видео: H.264, AVC, 1920x1080i, 16:9, 15 Мбит/с, 59.94 Гц
Аудио: ААС, 2.0, 48 КГц, 160 Кбит/с

MediaInfo

Общее
Уникальный идентификатор : 218420793711428585319028536900714640450 (0xA4525090BD99FE069AEDB64A0B523442)
Полное имя : ..\Карелия 2016 half\Рускеала_LR.mkv
Формат : Matroska
Версия формата : Version 4 / Version 2
Размер файла : 742 Мбайт
Продолжительность : 7 м. 0 с.
Общий поток : 14,8 Мбит/сек
Дата кодирования : UTC 2017-03-24 17:01:01
Программа кодирования : mkvmerge v9.7.1 ('Pandemonium') 64bit
Библиотека кодирования : libebml v1.3.4 + libmatroska v1.4.5
Видео
Идентификатор : 1
Формат : AVC
Формат/Информация : Advanced Video Codec
Профиль формата : High@L4.2
MultiView_Count : 2
MultiView_Layout : Side by Side (left eye first)
Параметр CABAC формата : Да
Параметр ReFrames формата : 4 кадра
Идентификатор кодека : V_MPEG4/ISO/AVC
Продолжительность : 7 м. 0 с.
Битрейт : 15,0 Мбит/сек
Ширина : 1920 пикселей
Высота : 1080 пикселей
Соотношение сторон : 16:9
Режим частоты кадров : Постоянный
Частота кадров : 29,970 (29970/1000) кадров/сек
Цветовое пространство : YUV
Субдискретизация насыщенности : 4:2:0
Битовая глубина : 8 бит
Тип развёртки : MBAFF
Метод сохранения типа развёртки : Чередующиеся поля
Порядок развёртки : Верхнее поле первое
Бит/(Пиксели*Кадры) : 0.241
Размер потока : 734 Мбайт (99%)
Библиотека кодирования : x264 core 146 r2538bm 121396c
Настройки программы : cabac=1 / ref=4 / deblock=1:-1:-1 / analyse=0x3:0x133 / me=umh / subme=9 / psy=1 / psy_rd=1.00:0.15 / mixed_ref=1 / me_range=16 / chroma_me=1 / trellis=2 / 8x8dct=1 / cqm=0 / deadzone=21,11 / fast_pskip=1 / chroma_qp_offset=-3 / threads=12 / lookahead_threads=1 / sliced_threads=0 / nr=0 / decimate=1 / interlaced=tff / bluray_compat=0 / constrained_intra=0 / bframes=3 / b_pyramid=2 / b_adapt=2 / b_bias=0 / direct=3 / weightb=1 / open_gop=0 / weightp=0 / keyint=250 / keyint_min=25 / scenecut=40 / intra_refresh=0 / rc_lookahead=60 / rc=abr / mbtree=1 / bitrate=15000 / ratetol=1.0 / qcomp=0.60 / qpmin=0 / qpmax=69 / qpstep=4 / ip_ratio=1.40 / aq=1:1.00
Default : Да
Forced : Нет
Аудио
Идентификатор : 2
Формат : AAC
Формат/Информация : Advanced Audio Codec
Профиль формата : LC
Идентификатор кодека : A_AAC
Продолжительность : 6 м. 59 с.
Битрейт : 160 Кбит/сек
Каналы : 2 канала
Расположение каналов : Front: L R
Частота : 48,0 КГц
Частота кадров : 46,875 кадров/сек (1024 spf)
Метод сжатия : С потерями
Размер потока : 7,99 Мбайт (1%)
Язык : Russian
Default : Да
Forced : Нет

Скриншоты

Если ваш рейтинг упадет ниже 0,3, вы не сможете скачивать торренты! Подробнее о рейтинге.

[asmlocator.ru].t344496.torrent 
Торрент: Зарегистрирован [ 2017-05-01 22:20 ] · 664FD94D16AF33443BFE0F6637422448E4757214

Скачать .torrent

Скачать

17 KB

Статус: проверено
Скачан: 0 раз
Размер: 6,51 GB
terms.php
[Профиль] [ЛС]
Показать сообщения:    
Ответить на тему

Текущее время: 23-Июл 02:39

Часовой пояс: UTC ± 0



Вы не можете начинать темы
Вы не можете отвечать на сообщения
Вы не можете редактировать свои сообщения
Вы не можете удалять свои сообщения
Вы не можете голосовать в опросах
Вы не можете прикреплять файлы к сообщениям
Вы можете скачивать файлы