Юсуповский дворец / Yusupov Palace (Юрий Давыдов / Yuri Davydov) [2011, документальный, история, архитектура, искусство, DVBRip]

Reply to topic
DL-List and Torrent activity
Size:  548 MB   |    Registered:  2 years 3 months   |    Completed:  0 times

Seeder not seen: 1 year

 
   
 
 
Author Message

star21 ®

Gender: Female

Longevity: 3 years 9 months

Posts: 551989

Location: Екатеринбург

Post 29-Apr-2017 09:10

[Quote]

Юсуповский дворец / Yusupov Palace
Дата/Год выпуска: 2011
Страна: Россия
Жанр: документальный, история, архитектура, искусство
Продолжительность: 00:46:46
Перевод: Не требуется
Русские субтитры: нет
Режиссер: Юрий Давыдов / Yuri Davydov
Телеканал: RTG
Описание: Юсуповский дворец — старинный петербургский особняк на набережной реки Мойка. Сочетание утонченного вкуса и колоссального богатства бывших владельцев этого дома позволяет окунуться в атмосферу величественной роскоши 19 века. Здесь давали лучшие балы в Петербурге, здесь собирался цвет высшего общества дореволюционной России. Однако всему миру этот дворец известен как место убийства Григория Распутина. Событие, о котором споры не угасают до сих пор. Дело, в котором еще очень много непонятного. Тайна, которая еще не раскрыта. В одном из самых роскошных и загадочных домов Санкт-Петербурга побывала ведущая Ольга Дегтярева.
Сэмпл: http://multi-up.com/1151955
качество: DVBRip
формат: AVI
Видео: Xvid 704x480 25fps 1497kbps
Аудио: MP3 48000Hz stereo 128kbps

MediaInfo

GeneralComplete name                  : F:\Архитектура\19. Юсуповский дворец.aviFormat                         : AVIFormat/Info                    : Audio Video InterleaveFile size                      : 548 MiBDuration                       : 46mn 46sOverall bit rate               : 1 639 Kbps
VideoID : 0Format : MPEG-4 VisualFormat profile : Advanced Simple@L5Format settings, BVOP : 2Format settings, QPel : NoFormat settings, GMC : No warppointsFormat settings, Matrix : Default (H.263)Codec ID : XVIDCodec ID/Hint : XviDDuration : 46mn 46sBit rate : 1 498 KbpsWidth : 704 pixelsHeight : 480 pixelsDisplay aspect ratio : 3:2Frame rate : 25.000 fpsStandard : NTSCColor space : YUVChroma subsampling : 4:2:0Bit depth : 8 bitsScan type : ProgressiveCompression mode : LossyBits/(Pixel*Frame) : 0.177Stream size : 501 MiB (91%)Writing library : XviD 64
AudioID : 1Format : MPEG AudioFormat version : Version 1Format profile : Layer 3Codec ID : 55Codec ID/Hint : MP3Duration : 46mn 46sSource duration : 46mn 46sBit rate mode : ConstantBit rate : 128 KbpsChannel(s) : 2 channelsSampling rate : 48.0 KHzCompression mode : LossyStream size : 42.8 MiB (8%)Alignment : Split accross interleavesInterleave, duration : 24 ms (0.60 video frame)Writing library : LAME3.99UЂ@9%°8†

Скриншоты

Другие мои раздачи: архитектура, недвижимость, живопись http://rutracker.org/forum/tracker.php?rid=8171303

To download the content you need:
1. Download and install torrent client [for Windows] or for mobile system
2. Click on [Download]
Attention.
If the test YOU are NOT a ROBOT - does not work, then You are using an outdated browser.
Install the current browser and click on [Download]
Security: torrent client is allowed by Kaspersky.

[asmlocator.ru].t344226.torrent 
Torrent: Registered [ 2017-04-29 09:10 ] · F54EB1B5F2CD683C28709C4349DDECDEEEC17DC7

Download .torrent

Download

11 KB

Status: checked
Completed: 0 times
Size: 548 MB
terms.php
[Profile] [PM]
Display posts:    
Reply to topic

Current time is: 23-Aug 16:45

All times are UTC ± 0



You cannot post new topics in this forum
You cannot reply to topics in this forum
You cannot edit your posts in this forum
You cannot delete your posts in this forum
You cannot vote in polls in this forum
You cannot attach files in this forum
You can download files in this forum