Роберт Плант: Из первых уст / Robert Plant: By Myself (Крис Родли / Chris Rodley) [2010, Рок, документальный, биография, DVDRip] VO + Original Eng

Ответить на тему
Статистика раздачи
Размер:  698 MB   |    Зарегистрирован:  2 месяца 4 дня   |    Скачан:  0 раз

Полного источника не было: Никогда

 
   
 
 
Автор Сообщение

star21 ®

Пол: Не указан

Стаж: 1 год 7 месяцев

Сообщений: 299353

Создавать темы 21-Апр-2017 08:35

[Цитировать]

Роберт Плант: Из первых уст / Robert Plant: By Myself
Жанр: Рок, документальный, биография
Страна: Великобритания
Студия: British Broadcasting Corporation (BBC)
Год выпуска: 2010
Продолжительность: 00:58:47.199 (88180 frames)
Озвучивание: Одноголосый закадровый - ССК+ (Сергей Квардаков)
Оригинальная аудиодорожка: английский
Режиссер: Крис Родли / Chris Rodley
Описание: Величайший рок-музыкант Роберт Плант (Robert Plant) рассказывает о своем увлечении музыкой в Стаурбридже, о британском блюзовом буме, о Led Zeppelin, Band of Joy, Honeydrippers, о своем сотрудничестве с африканскими музыкантами, о воссоединении с Джимми Пейджем и совместной работе с Элисон Краусс.
Дополнительная информация:
Автор рипа: pmv
Большое спасибо за:
- исходный DVD5 (http://rutracker.org/forum/viewtopic.php?t=3593565) - Bloodclaw
- перевод (русские субтитры) - BigAl-64
- редактирование перевода и озвучивание - ССК+
- идея проекта и помощь при создании релиза – SAlov
- работа со звуком - renege
- помощь в подготовке релиза – vova68
* Премьера (UK, TV): 6 ноября 2010
* В фильме представлены: воспоминания Роберта Планта о своей музыкальной карьере, а также показаны кадры кинохроники и фрагменты выступлений Роберта Планта и его друзей-музыкантов по группе Led Zeppelin, из сольных концертов и в дуэте с Элисон Краусс. В роли комментатора выступает Марк Рэдклифф (Mark Radcliffe).
IMDb = 7,8/10 (16) - [imdb]http://www.imdb.com/title/tt1899277[/imdb]
ПРОСЬБА к СКАЧАВШИМ. НЕ УХОДИТЕ С РАЗДАЧИ, ПОМОГИТЕ ДРУГИМ СКАЧАТЬ!!!
Качество: DVDRip
Формат: AVI
Видео: 720x400 (1.80:1), 25 fps, XviD build 73 ~1388 kbps avg, 0.19 bit/pixel
Аудио #1: 48 kHz, MPEG Layer 3, 2 ch, ~128.00 kbps avg - русский (ССК+)
Аудио #2: 48 kHz, MPEG Layer 3, 2 ch, ~128.00 kbps avg - английский

MediaInfo

GeneralComplete name                  : D:\torrents\Robert Plant - By Myself (BBC TV 2010, rus_VO+eng).aviFormat                         : AVIFormat/Info                    : Audio Video InterleaveFile size                      : 698 MiBDuration                       : 58mn 47sOverall bit rate               : 1 660 KbpsWriting application            : VirtualDubMod 1.5.10.3 | www.virtualdub-fr.org || (build 2550/release)Writing library                : VirtualDubMod build 2550/release
VideoID : 0Format : MPEG-4 VisualFormat profile : Advanced Simple@L5Format settings, BVOP : 2Format settings, QPel : NoFormat settings, GMC : No warppointsFormat settings, Matrix : Default (H.263)Codec ID : XVIDCodec ID/Hint : XviDDuration : 58mn 47sBit rate : 1 390 KbpsWidth : 720 pixelsHeight : 400 pixelsDisplay aspect ratio : 16:9Frame rate : 25.000 fpsColor space : YUVChroma subsampling : 4:2:0Bit depth : 8 bitsScan type : ProgressiveCompression mode : LossyBits/(Pixel*Frame) : 0.193Stream size : 584 MiB (84%)Writing library : XviD 73
Audio #1ID : 1Format : MPEG AudioFormat version : Version 1Format profile : Layer 3Codec ID : 55Codec ID/Hint : MP3Duration : 58mn 47sBit rate mode : ConstantBit rate : 128 KbpsChannel(s) : 2 channelsSampling rate : 48.0 KHzCompression mode : LossyStream size : 53.8 MiB (8%)Alignment : Aligned on interleavesInterleave, duration : 40 ms (1.00 video frame)Interleave, preload duration : 504 ms
Audio #2ID : 2Format : MPEG AudioFormat version : Version 1Format profile : Layer 3Mode : Joint stereoMode extension : MS StereoCodec ID : 55Codec ID/Hint : MP3Duration : 58mn 47sBit rate mode : ConstantBit rate : 128 KbpsChannel(s) : 2 channelsSampling rate : 48.0 KHzCompression mode : LossyStream size : 53.8 MiB (8%)Alignment : Aligned on interleavesInterleave, duration : 40 ms (1.00 video frame)Interleave, preload duration : 504 ms
МОИ РАЗДАЧИ НА РУТРЕКЕРЕ: http://rutracker.org/forum/tracker.php?rid=27390064

Если ваш рейтинг упадет ниже 0,3, вы не сможете скачивать торренты! Подробнее о рейтинге.

[asmlocator.ru].t343495.torrent 
Торрент: Зарегистрирован [ 2017-04-21 08:35 ] · A802731BDFA6957457B78698815092E6831F8930

Скачать .torrent

Скачать

14 KB

Статус: проверено
Скачан: 0 раз
Размер: 698 MB
terms.php
[Профиль] [ЛС]
Показать сообщения:    
Ответить на тему

Текущее время: 25-Июн 17:27

Часовой пояс: UTC ± 0



Вы не можете начинать темы
Вы не можете отвечать на сообщения
Вы не можете редактировать свои сообщения
Вы не можете удалять свои сообщения
Вы не можете голосовать в опросах
Вы не можете прикреплять файлы к сообщениям
Вы можете скачивать файлы