Почти семнадцать / The Edge of Seventeen (Келли Фрэмон / Kelly Fremon Craig) [2016, США, Драма, комедия, BDRip] MVO

Ответить на тему
Статистика раздачи
Размер:  1,46 GB   |    Зарегистрирован:  8 дней   |    Скачан:  0 раз

Полного источника не было: Никогда

 
   
 
 
Автор Сообщение

star21 ®

Пол: Не указан

Стаж: 1 год 5 месяцев

Сообщений: 300211

Создавать темы 21-Апр-2017 08:35

[Цитировать]

Почти семнадцать / The Edge of Seventeen- Год выхода: 2016
Выпущено: США / Gracie Films
Жанр: драма, комедия
Продолжительность: 01:45:21
Перевод: Профессиональный (многоголосый, закадровый)
Субтитры: нет-Режиссер:
Келли Фрэмон / Kelly Fremon Craig-В ролях:
Хейли Стайнфелд, Хейли Лу Ричардсон, Блейк Дженнер, Кира Седжвик, Вуди Харрельсон, Хейден Сзето, Александр Кэлверт, Эрик Кинлисайд, Неста Купер, Дэниэл Бэйкон-О фильме:
С самого детства Надин считала, что её старшему брату всё даётся легко и просто, а сама она росла врединой и даже не могла завести друзей в начальной школе. Но однажды девочка Криста захотела дружить с ней, и они стали лучшими подругами. В свои 17 лет Надин всё так же ненавидит брата, и когда Криста начинает с ним встречаться, мир переворачивается с ног на голову.-Релиз групп | | [imdb]http://www.imdb.com/title/tt1878870[/imdb] | КиноПоиск | Сэмпл |-Качество: BDRip [THE_EDGE_OF_SEVENTEEN_REMUX_HDCLUB]
Формат: AVI
Видео: 720x384 (1.88:1), 23.976 fps, XviD build 67 ~1586 kbps avg, 0.24 bit/pixel
Аудио: 48 kHz, AC3 Dolby Digital, 3/2 (L,C,R,l,r) + LFE ch, ~384 kbps avg - iTunes Russia-

Скриншоты

-

MediaInfo

Общее
Полное имя                               : D:\Pochti_semnadcat`_2016_BDRip_MVO_by_Dalemake.avi
Формат                                   : AVI
Формат/Информация                        : Audio Video Interleave
Размер файла                             : 1,46 Гбайт
Продолжительность                        : 1 ч. 45 м.
Общий поток                              : 1980 Кбит/сек
Программа кодирования                    : VirtualDubMod 1.5.10.3 | www.virtualdub-fr.org || (build 2550/release)
Библиотека кодирования                   : VirtualDubMod build 2550/release
Видео
Идентификатор                            : 0
Формат                                   : MPEG-4 Visual
Профиль формата                          : Advanced Simple@L5
Параметр BVOP формата                    : 1
Параметр QPel формата                    : Нет
Параметр GMC формата                     : Без точки перехода
Параметр матрицы формата                 : Выборочная
Идентификатор кодека                     : XVID
Идентификатор кодека/Подсказка           : XviD
Продолжительность                        : 1 ч. 45 м.
Битрейт                                  : 1587 Кбит/сек
Ширина                                   : 720 пикселей
Высота                                   : 384 пикселя
Соотношение сторон                       : 1,85:1
Частота кадров                           : 23,976 кадра/сек
Цветовое пространство                    : YUV
Субдискретизация насыщенности            : 4:2:0
Битовая глубина                          : 8 бит
Тип развёртки                            : Прогрессивная
Метод сжатия                             : С потерями
Бит/(Пиксели*Кадры)                      : 0.239
Размер потока                            : 1,17 Гбайт (80%)
Библиотека кодирования                   : XviD 67
Аудио
Идентификатор                            : 1
Формат                                   : AC-3
Формат/Информация                        : Audio Coding 3
Расширение режима                        : CM (complete main)
Параметр Endianness формата              : Big
Идентификатор кодека                     : 2000
Продолжительность                        : 1 ч. 45 м.
Вид битрейта                             : Постоянный
Битрейт                                  : 384 Кбит/сек
Каналы                                   : 6 каналов
Расположение каналов                     : Front: L C R, Side: L R, LFE
Частота                                  : 48,0 КГц
Битовая глубина                          : 16 бит
Метод сжатия                             : С потерями
Размер потока                            : 289 Мбайт (19%)
Выравнивание                             : Разделение по промежуткам
Продолжительность промежутка             : 42  мс. (1,00 видеокадр)
Время предзагрузки промежутка            : 500  мс.
-

Если ваш рейтинг упадет ниже 0,3, вы не сможете скачивать торренты! Подробнее о рейтинге.

[asmlocator.ru].t343482.torrent 
Торрент: Зарегистрирован [ 2017-04-21 08:35 ] · 896A60508EDF0A6C57767F9459AB2C780145C7E9

Скачать .torrent

Скачать

15 KB

Статус: проверено
Скачан: 0 раз
Размер: 1,46 GB
terms.php
[Профиль] [ЛС]
Показать сообщения:    
Ответить на тему

Текущее время: 29-Апр 23:15

Часовой пояс: UTC ± 0



Вы не можете начинать темы
Вы не можете отвечать на сообщения
Вы не можете редактировать свои сообщения
Вы не можете удалять свои сообщения
Вы не можете голосовать в опросах
Вы не можете прикреплять файлы к сообщениям
Вы можете скачивать файлы