Процесс / The Trial / Кафка / Kafka (Дэвид Хью Джонс / David Hugh Jones) [1993, Великобритания, драма, DVDRip] AVO (Дьяконов) + Original Eng

Ответить на тему
Статистика раздачи
Размер:  2,19 GB   |    Зарегистрирован:  4 месяца 2 дня   |    Скачан:  0 раз

Полного источника не было: 1 месяц 8 дней

 
   
 
 
Автор Сообщение

star21 ®

Пол: Не указан

Стаж: 1 год 9 месяцев

Сообщений: 355776

Создавать темы 21-Апр-2017 08:35

[Цитировать]

Процесс / The Trial
Страна: Великобритания
Жанр: драма
Год выпуска: 1993
Продолжительность: 02:00:31
Перевод: Авторский (одноголосый закадровый) Константина Дьяконова
Cубтитры: нет
Оригинальная аудиодорожка: английский
Режиссер: Дэвид Хью Джонс / David Hugh Jones
В ролях: Кайл МакЛоклен / Kyle MacLachlan... Josef K.
Энтони Хопкинс / Anthony Hopkins... The Priest
Джейсон Робардс / Jason Robards... Doctor Huld
Джульет Стивенсон / Juliet Stevenson... Fräulein Burstner
Полли Уокер / Polly Walker... Leni
Альфред Молина / Alfred Molina... Titorelli
Дэвид Тьюлис / David Thewlis... Franz
Описание: Близкая к оригиналу экранизация романа-притчи Франца Кафки о некоем Йозефе К., против которого выдвинуто обвинение в неизвестном ему преступлении. Пытаясь оправдать и защитить себя, он постепенно осознаёт, что полностью втянут в неравную борьбу с бюрократией, не предоставляющей ему никакого выхода...
Доп. информация: исходник из тика; перевод Дьяконова оцифровал и синхронизировал karlll
Качество видео: DVDRip ~Сэмпл~
Формат видео: AVI
Видео: 624x480 (1.30:1), 23.976 fps, XviD build 65 ~2205 kbps avg, 0.31 bit/pixel
Аудио 1: 48 kHz, AC3 Dolby Digital, 2/0 (L,R) ch, ~192 kbps - перевод
Аудио 2: 48 kHz, AC3 Dolby Digital, 2/0 (L,R) ch, ~192 kbps - английский

MediaInfo

Формат : AVI
Формат/Информация : Audio Video Interleave
Профиль формата : OpenDML
Размер файла : 2,19 Гбайт
Продолжительность : 2 ч. 0 м.
Общий поток : 2596 Кбит/сек
Название фильма : The Trial (1993)
Программа кодирования : VirtualDubMod 1.5.10.3 | www.virtualdub-fr.org || (build 2550/release)
Библиотека кодирования : VirtualDubMod build 2550/release
Правообладатель : karlll
Видео
Идентификатор : 0
Формат : MPEG-4 Visual
Профиль формата : Advanced Simple@L5
Параметр BVOP формата : 2
Параметр QPel формата : Нет
Параметр GMC формата : Без точки перехода
Параметр матрицы формата : Выборочная
Идентификатор кодека : XVID
Идентификатор кодека/Подсказка : XviD
Продолжительность : 2 ч. 0 м.
Битрейт : 2194 Кбит/сек
Ширина : 624 пикселя
Высота : 480 пикселей
Соотношение сторон : 4:3
Частота кадров : 23,976 кадра/сек
Цветовое пространство : YUV
Субдискретизация насыщенности : 4:2:0
Битовая глубина : 8 бит
Тип развёртки : Прогрессивная
Метод сжатия : С потерями
Бит/(Пиксели*Кадры) : 0.305
Размер потока : 1,85 Гбайт (85%)
Библиотека кодирования : XviD 65
Аудио #1
Идентификатор : 1
Формат : AC-3
Формат/Информация : Audio Coding 3
Расширение режима : CM (complete main)
Параметр Endianness формата : Big
Идентификатор кодека : 2000
Продолжительность : 2 ч. 0 м.
Вид битрейта : Постоянный
Битрейт : 192 Кбит/сек
Каналы : 2 канала
Расположение каналов : Front: L R
Частота : 48,0 КГц
Битовая глубина : 16 бит
Метод сжатия : С потерями
Размер потока : 166 Мбайт (7%)
Выравнивание : Разделение по промежуткам
Продолжительность промежутка : 42 мс. (1,00 видеокадр)
Время предзагрузки промежутка : 500 мс.
Заголовок : Diyakonov
Аудио #2
Идентификатор : 2
Формат : AC-3
Формат/Информация : Audio Coding 3
Расширение режима : CM (complete main)
Параметр Endianness формата : Big
Идентификатор кодека : 2000
Продолжительность : 2 ч. 0 м.
Вид битрейта : Постоянный
Битрейт : 192 Кбит/сек
Каналы : 2 канала
Расположение каналов : Front: L R
Частота : 48,0 КГц
Битовая глубина : 16 бит
Метод сжатия : С потерями
Размер потока : 166 Мбайт (7%)
Выравнивание : Разделение по промежуткам
Продолжительность промежутка : 42 мс. (1,00 видеокадр)
Время предзагрузки промежутка : 500 мс.
Заголовок : english

Скриншоты

Для скачки контента: [Установить программу-клиент] и кликнуть по - Скачать

[asmlocator.ru].t343471.torrent 
Торрент: Зарегистрирован [ 2017-04-21 08:35 ] · CF3BA6EAE6C54AADDAEDEB02648FD9D6D6A762B2

Скачать .torrent

Скачать

12 KB

Статус: проверено
Скачан: 0 раз
Размер: 2,19 GB
terms.php
[Профиль] [ЛС]
Показать сообщения:    
Ответить на тему

Текущее время: 23-Авг 13:43

Часовой пояс: UTC ± 0



Вы не можете начинать темы
Вы не можете отвечать на сообщения
Вы не можете редактировать свои сообщения
Вы не можете удалять свои сообщения
Вы не можете голосовать в опросах
Вы не можете прикреплять файлы к сообщениям
Вы можете скачивать файлы