[BR][OF] The Beach Boys / Pet Sounds (50th Anniversary Edition 4 CD/Blu-Ray Audio) - 1966/2016 (Classic Rock)

Ответить на тему
Статистика раздачи
Размер:  20,47 GB   |    Зарегистрирован:  6 дней   |    Скачан:  0 раз

Полного источника не было: Никогда

 
   
 
 
Автор Сообщение

star21 ®

Пол: Не указан

Стаж: 1 год 5 месяцев

Сообщений: 300211

Создавать темы 21-Апр-2017 06:30

[Цитировать]

The Beach Boys / Pet Sounds (1966) [50th Anniversary Edition 4 CD/Blu-Ray Audio]
Формат записи/Источник записи: [BR][OF]
Наличие водяных знаков: Нет
Издание: Anniversary Edition
Год издания/переиздания диска: 1966/2016
Жанр: Classic Rock
Издатель (Лейбл): Capitol (USA)
Продолжительность: 00:57:47
Наличие сканов в содержимом раздачи: Буклет PDF
Контейнер: BDMV
Тип рипа: folder
Разрядность: 24/192, 24/96
Формат: LPCM, DTS-HD Master, Dolby TrueHD
Количество каналов: 2.0, 5.1
Video #1: MPEG-4 AVC Video / 1998 kbps / 1080p / 23,976 fps / 16:9 / High Profile 4.1
Video #2: MPEG-4 AVC Video / 19 kbps / 480p / 23,976 fps / 16:9 / High Profile 3.2
Audio #1: English / LPCM Audio / 2.0 / 192 kHz / 9216 kbps / 24-bit (Stereo & Mono)
Audio #2: English / DTS-HD Master Audio / 5.1 / 96 kHz / 9222 kbps / 24-bit (DTS Core: 6.1 / 48 kHz / 1509 kbps / 24-bit)
Audio #3: English / Dolby TrueHD Audio / 5.1 / 96 kHz / 8537 kbps / 24-bit (AC3 Embedded: 5.1 / 48 kHz / 640 kbps)

Треклист

BLU-RAY PURE AUDIO DISC
5.1 Surround Sound, Mono, Stereo & Stereo Instrumental
1. Wouldn’t It Be Nice
2. You Still Believe In Me
3. That’s Not Me
4. Don’t Talk (Put Your Head On My Shoulder)
5. I’m Waiting For The Day
6. Let’s Go Away For Awhile
7. Sloop John B.
8. God Only Knows
9. I Know There’s An Answer 10. Here Today
11. I Just Wasn’t Made For These Times
12. Pet Sounds
13. Caroline No
Additional Material in 5.1 Surround and Stereo
14. Unreleased Backgrounds (Unused Intro for “Don’t Talk (Put Your Head On My Shoulder)”)
15. Wouldn’t It Be Nice (Session Highlights)
16. Wouldn’t It Be Nice (Alternative Mix without Lead Vocal)
17. God Only Knows (Session Highlights)
18. God Only Knows (Master Track Mix With A Cappella Tag)
19. Summer Means New Love
Mono, Stereo and Instrumental (192kHz/24-bit)
5.1 Surround Sound (96kHz/24-bit)

Лог проверки качества

Disc Title:     The Beach Boys - Pet Sounds (50th Anniversary DeLuxe Edition)Disc Size:      21 977 743 861 bytesProtection:     AACSBD-Java:        YesBDInfo:         0.5.8
Notes:
BDINFO HOME: Cinema Squid http://www.cinemasquid.com/blu-ray/tools/bdinfo
INCLUDES FORUMS REPORT FOR: AVS Forum Blu-ray Audio and Video Specifications Thread http://www.avsforum.com/avs-vb/showthread.php?t=1155731
********************PLAYLIST: 00002.MPLS********************
<--- BEGIN FORUMS PASTE --->
Total   Video
Title                                                           Codec   Length  Movie Size      Disc Size       Bitrate Bitrate Main Audio Track                          Secondary Audio Track
-----                                                           ------  ------- --------------  --------------  ------- ------- ------------------                        ---------------------
00002.MPLS                                                      AVC     0:57:47 5 219 770 368   21 977 743 861  12,04   2,00    LPCM 2.0 9216Kbps (192kHz/24-bit)
DISC INFO:
Disc Title:     The Beach Boys - Pet Sounds (50th Anniversary DeLuxe Edition)
Disc Size:      21 977 743 861 bytes
Protection:     AACS
BD-Java:        Yes
BDInfo:         0.5.8
PLAYLIST REPORT:
Name:                   00002.MPLS
Length:                 0:57:47.172 (h:m:s.ms)
Size:                   5 219 770 368 bytes
Total Bitrate:          12,04 Mbps
VIDEO:
Codec                   Bitrate             Description
-----                   -------             -----------
MPEG-4 AVC Video        1998 kbps           1080p / 23,976 fps / 16:9 / High Profile 4.1
MPEG-4 AVC Video        19 kbps             480p / 23,976 fps / 16:9 / High Profile 3.2
AUDIO:
Codec                           Language        Bitrate         Description
-----                           --------        -------         -----------
LPCM Audio                      English         9216 kbps       2.0 / 192 kHz / 9216 kbps / 24-bit
FILES:
Name            Time In         Length          Size            Total Bitrate
----            -------         ------          ----            -------------
00002.M2TS      0:00:00.000     0:57:47.172     5 219 770 368   12 044
CHAPTERS:
Number          Time In         Length          Avg Video Rate  Max 1-Sec Rate  Max 1-Sec Time  Max 5-Sec Rate  Max 5-Sec Time  Max 10Sec Rate  Max 10Sec Time  Avg Frame Size  Max Frame Size  Max Frame Time
------          -------         ------          --------------  --------------  --------------  --------------  --------------  --------------  --------------  --------------  --------------  --------------
1               0:00:00.000     0:57:47.172     1 998 kbps      3 017 kbps      00:00:03.378    2 183 kbps      00:50:04.626    2 141 kbps      00:50:04.626    10 417 bytes    217 260 bytes   00:09:50.172
STREAM DIAGNOSTICS:
File            PID             Type            Codec           Language                Seconds                 Bitrate                 Bytes           Packets
----            ---             ----            -----           --------                --------------          --------------          -------------   -----
00002.M2TS      4113 (0x1011)   0x1B            AVC                                     3467,005                1 998                   865 937 153     4 755 150
00002.M2TS      4352 (0x1100)   0x80            LPCM            eng (English)           3467,005                9 223                   3 996 907 280   22 189 662
00002.M2TS      6912 (0x1B00)   0x1B            AVC                                     3467,005                19                      8 253 681       86 906
<---- END FORUMS PASTE ---->
QUICK SUMMARY:
Disc Title: The Beach Boys - Pet Sounds (50th Anniversary DeLuxe Edition)Disc Size: 21 977 743 861 bytesProtection: AACSBD-Java: YesPlaylist: 00002.MPLSSize: 5 219 770 368 bytesLength: 0:57:47.172Total Bitrate: 12,04 MbpsVideo: MPEG-4 AVC Video / 1998 kbps / 1080p / 23,976 fps / 16:9 / High Profile 4.1Video: MPEG-4 AVC Video / 19 kbps / 480p / 23,976 fps / 16:9 / High Profile 3.2Audio: English / LPCM Audio / 2.0 / 192 kHz / 9216 kbps / 24-bit
********************PLAYLIST: 01002.MPLS********************
<--- BEGIN FORUMS PASTE --->
Total   Video
Title                                                           Codec   Length  Movie Size      Disc Size       Bitrate Bitrate Main Audio Track                          Secondary Audio Track
-----                                                           ------  ------- --------------  --------------  ------- ------- ------------------                        ---------------------
01002.MPLS                                                      AVC     0:57:47 5 219 770 368   21 977 743 861  12,04   2,00    LPCM 2.0 9216Kbps (192kHz/24-bit)
DISC INFO:
Disc Title:     The Beach Boys - Pet Sounds (50th Anniversary DeLuxe Edition)
Disc Size:      21 977 743 861 bytes
Protection:     AACS
BD-Java:        Yes
BDInfo:         0.5.8
PLAYLIST REPORT:
Name:                   01002.MPLS
Length:                 0:57:47.172 (h:m:s.ms)
Size:                   5 219 770 368 bytes
Total Bitrate:          12,04 Mbps
VIDEO:
Codec                   Bitrate             Description
-----                   -------             -----------
MPEG-4 AVC Video        1998 kbps           1080p / 23,976 fps / 16:9 / High Profile 4.1
MPEG-4 AVC Video        19 kbps             480p / 23,976 fps / 16:9 / High Profile 3.2
AUDIO:
Codec                           Language        Bitrate         Description
-----                           --------        -------         -----------
LPCM Audio                      English         9216 kbps       2.0 / 192 kHz / 9216 kbps / 24-bit
FILES:
Name            Time In         Length          Size            Total Bitrate
----            -------         ------          ----            -------------
00002.M2TS      0:00:00.000     0:57:47.172     5 219 770 368   12 044
CHAPTERS:
Number          Time In         Length          Avg Video Rate  Max 1-Sec Rate  Max 1-Sec Time  Max 5-Sec Rate  Max 5-Sec Time  Max 10Sec Rate  Max 10Sec Time  Avg Frame Size  Max Frame Size  Max Frame Time
------          -------         ------          --------------  --------------  --------------  --------------  --------------  --------------  --------------  --------------  --------------  --------------
1               0:00:00.000     0:02:35.363     2 005 kbps      3 017 kbps      00:00:03.378    2 181 kbps      00:00:01.584    2 140 kbps      00:00:01.626    10 449 bytes    217 175 bytes   00:01:19.662
2               0:02:35.363     0:02:36.114     1 996 kbps      2 819 kbps      00:02:40.702    2 069 kbps      00:04:15.922    2 065 kbps      00:03:21.284    10 404 bytes    217 230 bytes   00:04:20.426
3               0:05:11.477     0:02:30.984     1 995 kbps      2 820 kbps      00:05:52.018    2 071 kbps      00:07:13.141    2 066 kbps      00:07:08.302    10 402 bytes    217 235 bytes   00:06:38.731
4               0:07:42.462     0:02:58.261     2 002 kbps      3 017 kbps      00:10:03.978    2 181 kbps      00:10:02.184    2 140 kbps      00:10:02.226    10 440 bytes    217 260 bytes   00:09:50.172
5               0:10:40.723     0:03:06.895     2 003 kbps      2 822 kbps      00:10:46.145    2 070 kbps      00:11:06.874    2 068 kbps      00:11:00.034    10 441 bytes    217 177 bytes   00:13:47.493
6               0:13:47.618     0:02:24.602     1 990 kbps      2 820 kbps      00:15:52.618    2 069 kbps      00:14:16.522    2 065 kbps      00:15:29.470    10 373 bytes    217 230 bytes   00:14:21.026
7               0:16:12.221     0:03:00.513     1 999 kbps      2 818 kbps      00:17:31.967    2 071 kbps      00:17:13.741    2 067 kbps      00:17:58.494    10 423 bytes    217 240 bytes   00:19:01.140
8               0:19:12.734     0:02:55.800     1 996 kbps      3 017 kbps      00:20:04.578    2 181 kbps      00:20:02.784    2 140 kbps      00:20:02.826    10 407 bytes    217 260 bytes   00:19:50.772
9               0:22:08.535     0:03:18.990     2 003 kbps      2 819 kbps      00:22:20.505    2 070 kbps      00:22:16.668    2 066 kbps      00:22:11.663    10 444 bytes    217 230 bytes   00:24:21.626
10              0:25:27.526     0:03:08.271     1 996 kbps      2 820 kbps      00:25:53.218    2 071 kbps      00:27:14.341    2 067 kbps      00:27:59.094    10 404 bytes    217 235 bytes   00:26:39.931
11              0:28:35.797     0:03:20.408     1 997 kbps      3 017 kbps      00:30:05.178    2 181 kbps      00:30:03.384    2 140 kbps      00:30:03.426    10 413 bytes    217 260 bytes   00:29:51.372
12              0:31:56.205     0:02:36.781     2 002 kbps      2 819 kbps      00:32:21.105    2 070 kbps      00:32:17.268    2 066 kbps      00:32:12.263    10 438 bytes    217 230 bytes   00:34:22.226
13              0:34:32.987     0:02:54.465     1 993 kbps      2 820 kbps      00:35:53.818    2 071 kbps      00:37:14.941    2 066 kbps      00:37:10.102    10 393 bytes    217 235 bytes   00:36:40.531
14              0:37:27.453     0:00:53.219     1 997 kbps      2 818 kbps      00:37:33.167    2 070 kbps      00:38:04.615    2 067 kbps      00:37:59.694    10 412 bytes    217 185 bytes   00:38:09.120
15              0:38:20.673     0:08:07.111     1 998 kbps      3 017 kbps      00:40:05.778    2 181 kbps      00:40:03.984    2 140 kbps      00:40:04.026    10 417 bytes    217 260 bytes   00:39:51.972
16              0:46:27.785     0:02:31.734     2 002 kbps      2 818 kbps      00:47:33.767    2 071 kbps      00:47:15.541    2 067 kbps      00:48:00.294    10 438 bytes    217 235 bytes   00:46:41.131
17              0:48:59.519     0:03:47.477     1 996 kbps      3 017 kbps      00:50:06.378    2 183 kbps      00:50:04.626    2 141 kbps      00:50:04.626    10 408 bytes    217 260 bytes   00:49:52.572
18              0:52:46.997     0:02:54.632     2 003 kbps      2 819 kbps      00:53:04.931    2 070 kbps      00:53:15.066    2 067 kbps      00:55:03.508    10 441 bytes    217 159 bytes   00:53:30.290
19              0:55:41.629     0:02:01.496     1 991 kbps      2 818 kbps      00:56:09.407    2 071 kbps      00:57:30.405    2 067 kbps      00:57:11.261    10 379 bytes    217 227 bytes   00:56:34.641
20              0:57:43.126     0:00:04.045     1 765 kbps      2 777 kbps      00:57:43.209    0 kbps          00:00:00.000    0 kbps          00:00:00.000    9 298 bytes     217 174 bytes   00:57:43.877
STREAM DIAGNOSTICS:
File            PID             Type            Codec           Language                Seconds                 Bitrate                 Bytes           Packets
----            ---             ----            -----           --------                --------------          --------------          -------------   -----
00002.M2TS      4113 (0x1011)   0x1B            AVC                                     3467,005                1 998                   865 937 153     4 755 150
00002.M2TS      4352 (0x1100)   0x80            LPCM            eng (English)           3467,005                9 223                   3 996 907 280   22 189 662
00002.M2TS      6912 (0x1B00)   0x1B            AVC                                     3467,005                19                      8 253 681       86 906
<---- END FORUMS PASTE ---->
QUICK SUMMARY:
Disc Title: The Beach Boys - Pet Sounds (50th Anniversary DeLuxe Edition)Disc Size: 21 977 743 861 bytesProtection: AACSBD-Java: YesPlaylist: 01002.MPLSSize: 5 219 770 368 bytesLength: 0:57:47.172Total Bitrate: 12,04 MbpsVideo: MPEG-4 AVC Video / 1998 kbps / 1080p / 23,976 fps / 16:9 / High Profile 4.1Video: MPEG-4 AVC Video / 19 kbps / 480p / 23,976 fps / 16:9 / High Profile 3.2Audio: English / LPCM Audio / 2.0 / 192 kHz / 9216 kbps / 24-bit
********************PLAYLIST: 00004.MPLS********************
<--- BEGIN FORUMS PASTE --->
Total   Video
Title                                                           Codec   Length  Movie Size      Disc Size       Bitrate Bitrate Main Audio Track                          Secondary Audio Track
-----                                                           ------  ------- --------------  --------------  ------- ------- ------------------                        ---------------------
00004.MPLS                                                      AVC     0:57:42 9 852 386 880   21 977 743 861  22,76   2,00    DTS-HD Master 5.1 9224Kbps (96kHz/24-bit) Dolby TrueHD 5.1 8539Kbps (96kHz/24-bit)
DISC INFO:
Disc Title:     The Beach Boys - Pet Sounds (50th Anniversary DeLuxe Edition)
Disc Size:      21 977 743 861 bytes
Protection:     AACS
BD-Java:        Yes
BDInfo:         0.5.8
PLAYLIST REPORT:
Name:                   00004.MPLS
Length:                 0:57:42.959 (h:m:s.ms)
Size:                   9 852 386 880 bytes
Total Bitrate:          22,76 Mbps
VIDEO:
Codec                   Bitrate             Description
-----                   -------             -----------
MPEG-4 AVC Video        1997 kbps           1080p / 23,976 fps / 16:9 / High Profile 4.1
MPEG-4 AVC Video        19 kbps             480p / 23,976 fps / 16:9 / High Profile 3.2
AUDIO:
Codec                           Language        Bitrate         Description
-----                           --------        -------         -----------
DTS-HD Master Audio             English         9224 kbps       5.1 / 96 kHz / 9224 kbps / 24-bit (DTS Core: 6.1 / 48 kHz / 1509 kbps / 24-bit)
Dolby TrueHD Audio              English         8539 kbps       5.1 / 96 kHz / 8539 kbps / 24-bit (AC3 Embedded: 5.1 / 48 kHz / 640 kbps)
FILES:
Name            Time In         Length          Size            Total Bitrate
----            -------         ------          ----            -------------
00004.M2TS      0:00:00.000     0:57:42.959     9 852 386 880   22 761
CHAPTERS:
Number          Time In         Length          Avg Video Rate  Max 1-Sec Rate  Max 1-Sec Time  Max 5-Sec Rate  Max 5-Sec Time  Max 10Sec Rate  Max 10Sec Time  Avg Frame Size  Max Frame Size  Max Frame Time
------          -------         ------          --------------  --------------  --------------  --------------  --------------  --------------  --------------  --------------  --------------  --------------
1               0:00:00.000     0:57:42.959     1 997 kbps      3 017 kbps      00:00:03.378    2 299 kbps      00:02:00.495    2 140 kbps      00:00:01.626    10 413 bytes    217 260 bytes   00:09:50.172
STREAM DIAGNOSTICS:
File            PID             Type            Codec           Language                Seconds                 Bitrate                 Bytes           Packets
----            ---             ----            -----           --------                --------------          --------------          -------------   -----
00004.M2TS      4113 (0x1011)   0x1B            AVC                                     3462,793                1 997                   864 357 742     4 746 458
00004.M2TS      4352 (0x1100)   0x86            DTS-HD MA       eng (English)           3462,793                9 224                   3 992 622 371   22 239 301
00004.M2TS      4353 (0x1101)   0x83            TrueHD          eng (English)           3462,793                9 180                   3 973 358 062   24 081 417
00004.M2TS      6912 (0x1B00)   0x1B            AVC                                     3462,793                19                      8 239 572       86 757
<---- END FORUMS PASTE ---->
QUICK SUMMARY:
Disc Title: The Beach Boys - Pet Sounds (50th Anniversary DeLuxe Edition)Disc Size: 21 977 743 861 bytesProtection: AACSBD-Java: YesPlaylist: 00004.MPLSSize: 9 852 386 880 bytesLength: 0:57:42.959Total Bitrate: 22,76 MbpsVideo: MPEG-4 AVC Video / 1997 kbps / 1080p / 23,976 fps / 16:9 / High Profile 4.1Video: MPEG-4 AVC Video / 19 kbps / 480p / 23,976 fps / 16:9 / High Profile 3.2Audio: English / DTS-HD Master Audio / 5.1 / 96 kHz / 9224 kbps / 24-bit (DTS Core: 6.1 / 48 kHz / 1509 kbps / 24-bit)Audio: English / Dolby TrueHD Audio / 5.1 / 96 kHz / 8539 kbps / 24-bit (AC3 Embedded: 5.1 / 48 kHz / 640 kbps)
********************PLAYLIST: 01001.MPLS********************
<--- BEGIN FORUMS PASTE --->
Total   Video
Title                                                           Codec   Length  Movie Size      Disc Size       Bitrate Bitrate Main Audio Track                          Secondary Audio Track
-----                                                           ------  ------- --------------  --------------  ------- ------- ------------------                        ---------------------
01001.MPLS                                                      AVC     0:57:42 9 852 386 880   21 977 743 861  22,76   2,00    DTS-HD Master 5.1 9224Kbps (96kHz/24-bit) Dolby TrueHD 5.1 8539Kbps (96kHz/24-bit)
DISC INFO:
Disc Title:     The Beach Boys - Pet Sounds (50th Anniversary DeLuxe Edition)
Disc Size:      21 977 743 861 bytes
Protection:     AACS
BD-Java:        Yes
BDInfo:         0.5.8
PLAYLIST REPORT:
Name:                   01001.MPLS
Length:                 0:57:42.959 (h:m:s.ms)
Size:                   9 852 386 880 bytes
Total Bitrate:          22,76 Mbps
VIDEO:
Codec                   Bitrate             Description
-----                   -------             -----------
MPEG-4 AVC Video        1997 kbps           1080p / 23,976 fps / 16:9 / High Profile 4.1
MPEG-4 AVC Video        19 kbps             480p / 23,976 fps / 16:9 / High Profile 3.2
AUDIO:
Codec                           Language        Bitrate         Description
-----                           --------        -------         -----------
DTS-HD Master Audio             English         9224 kbps       5.1 / 96 kHz / 9224 kbps / 24-bit (DTS Core: 6.1 / 48 kHz / 1509 kbps / 24-bit)
Dolby TrueHD Audio              English         8539 kbps       5.1 / 96 kHz / 8539 kbps / 24-bit (AC3 Embedded: 5.1 / 48 kHz / 640 kbps)
FILES:
Name            Time In         Length          Size            Total Bitrate
----            -------         ------          ----            -------------
00004.M2TS      0:00:00.000     0:57:42.959     9 852 386 880   22 761
CHAPTERS:
Number          Time In         Length          Avg Video Rate  Max 1-Sec Rate  Max 1-Sec Time  Max 5-Sec Rate  Max 5-Sec Time  Max 10Sec Rate  Max 10Sec Time  Avg Frame Size  Max Frame Size  Max Frame Time
------          -------         ------          --------------  --------------  --------------  --------------  --------------  --------------  --------------  --------------  --------------  --------------
1               0:00:00.000     0:02:35.280     2 001 kbps      3 017 kbps      00:00:03.378    2 299 kbps      00:02:00.495    2 140 kbps      00:00:01.626    10 468 bytes    217 175 bytes   00:01:19.662
2               0:02:35.280     0:02:34.028     1 998 kbps      2 819 kbps      00:02:40.702    2 069 kbps      00:04:15.922    2 065 kbps      00:03:21.284    10 415 bytes    217 230 bytes   00:04:20.426
3               0:05:09.308     0:02:29.566     1 978 kbps      2 820 kbps      00:05:52.018    2 071 kbps      00:07:13.141    2 066 kbps      00:07:08.302    10 340 bytes    217 235 bytes   00:06:38.731
4               0:07:38.875     0:02:58.720     2 000 kbps      3 017 kbps      00:10:03.978    2 181 kbps      00:10:02.184    2 140 kbps      00:10:02.226    10 426 bytes    217 260 bytes   00:09:50.172
5               0:10:37.595     0:03:06.895     2 003 kbps      2 823 kbps      00:10:40.640    2 070 kbps      00:11:06.874    2 068 kbps      00:11:00.034    10 442 bytes    217 175 bytes   00:11:20.262
6               0:13:44.490     0:02:23.101     2 000 kbps      2 820 kbps      00:15:52.618    2 069 kbps      00:14:16.522    2 065 kbps      00:15:29.470    10 426 bytes    217 230 bytes   00:14:21.026
7               0:16:07.591     0:03:04.517     1 997 kbps      2 818 kbps      00:17:31.967    2 071 kbps      00:17:13.741    2 067 kbps      00:17:58.494    10 410 bytes    217 240 bytes   00:19:01.140
8               0:19:12.109     0:02:54.716     1 992 kbps      3 017 kbps      00:20:04.578    2 181 kbps      00:20:02.784    2 140 kbps      00:20:02.826    10 387 bytes    217 260 bytes   00:19:50.772
9               0:22:06.825     0:03:17.697     2 001 kbps      2 819 kbps      00:22:20.505    2 070 kbps      00:22:16.668    2 066 kbps      00:22:11.663    10 432 bytes    217 230 bytes   00:24:21.626
10              0:25:24.523     0:03:06.853     1 994 kbps      2 820 kbps      00:25:53.218    2 071 kbps      00:27:14.341    2 067 kbps      00:27:59.094    10 394 bytes    217 235 bytes   00:26:39.931
11              0:28:31.376     0:03:19.407     2 002 kbps      3 017 kbps      00:30:05.178    2 181 kbps      00:30:03.384    2 140 kbps      00:30:03.426    10 440 bytes    217 260 bytes   00:29:51.372
12              0:31:50.783     0:02:39.659     1 996 kbps      2 819 kbps      00:32:21.105    2 070 kbps      00:32:17.268    2 066 kbps      00:32:12.263    10 405 bytes    217 230 bytes   00:34:22.226
13              0:34:30.443     0:02:53.631     1 998 kbps      2 820 kbps      00:35:53.818    2 071 kbps      00:37:14.941    2 066 kbps      00:37:10.102    10 414 bytes    217 235 bytes   00:36:40.531
14              0:37:24.075     0:00:53.636     1 990 kbps      2 818 kbps      00:37:33.167    2 070 kbps      00:38:04.615    2 067 kbps      00:37:59.694    10 373 bytes    217 189 bytes   00:37:26.577
15              0:38:17.712     0:08:07.403     1 997 kbps      3 017 kbps      00:40:05.778    2 181 kbps      00:40:03.984    2 140 kbps      00:40:04.026    10 414 bytes    217 260 bytes   00:39:51.972
16              0:46:25.115     0:02:31.359     2 005 kbps      2 818 kbps      00:47:33.767    2 071 kbps      00:47:15.541    2 067 kbps      00:48:00.294    10 452 bytes    217 235 bytes   00:46:41.131
17              0:48:56.475     0:03:47.185     1 994 kbps      3 017 kbps      00:50:06.378    2 178 kbps      00:50:04.584    2 137 kbps      00:50:04.626    10 398 bytes    217 260 bytes   00:49:52.572
18              0:52:43.660     0:02:53.715     1 994 kbps      2 817 kbps      00:53:26.077    2 066 kbps      00:55:08.722    2 063 kbps      00:55:10.557    10 394 bytes    217 233 bytes   00:52:46.079
19              0:55:37.375     0:02:01.579     2 001 kbps      2 810 kbps      00:56:09.199    2 066 kbps      00:55:58.188    2 062 kbps      00:57:25.358    10 430 bytes    217 223 bytes   00:55:43.339
20              0:57:38.955     0:00:04.003     1 747 kbps      2 703 kbps      00:57:39.456    0 kbps          00:00:00.000    0 kbps          00:00:00.000    9 202 bytes     213 486 bytes   00:57:40.206
STREAM DIAGNOSTICS:
File            PID             Type            Codec           Language                Seconds                 Bitrate                 Bytes           Packets
----            ---             ----            -----           --------                --------------          --------------          -------------   -----
00004.M2TS      4113 (0x1011)   0x1B            AVC                                     3462,793                1 997                   864 357 742     4 746 458
00004.M2TS      4352 (0x1100)   0x86            DTS-HD MA       eng (English)           3462,793                9 224                   3 992 622 371   22 239 301
00004.M2TS      4353 (0x1101)   0x83            TrueHD          eng (English)           3462,793                9 180                   3 973 358 062   24 081 417
00004.M2TS      6912 (0x1B00)   0x1B            AVC                                     3462,793                19                      8 239 572       86 757
<---- END FORUMS PASTE ---->
QUICK SUMMARY:
Disc Title: The Beach Boys - Pet Sounds (50th Anniversary DeLuxe Edition)Disc Size: 21 977 743 861 bytesProtection: AACSBD-Java: YesPlaylist: 01001.MPLSSize: 9 852 386 880 bytesLength: 0:57:42.959Total Bitrate: 22,76 MbpsVideo: MPEG-4 AVC Video / 1997 kbps / 1080p / 23,976 fps / 16:9 / High Profile 4.1Video: MPEG-4 AVC Video / 19 kbps / 480p / 23,976 fps / 16:9 / High Profile 3.2Audio: English / DTS-HD Master Audio / 5.1 / 96 kHz / 9224 kbps / 24-bit (DTS Core: 6.1 / 48 kHz / 1509 kbps / 24-bit)Audio: English / Dolby TrueHD Audio / 5.1 / 96 kHz / 8539 kbps / 24-bit (AC3 Embedded: 5.1 / 48 kHz / 640 kbps)
********************PLAYLIST: 00003.MPLS********************
<--- BEGIN FORUMS PASTE --->
Total   Video
Title                                                           Codec   Length  Movie Size      Disc Size       Bitrate Bitrate Main Audio Track                          Secondary Audio Track
-----                                                           ------  ------- --------------  --------------  ------- ------- ------------------                        ---------------------
00003.MPLS                                                      AVC     0:37:29 3 385 476 288   21 977 743 861  12,04   2,00    LPCM 2.0 9216Kbps (192kHz/24-bit)
DISC INFO:
Disc Title:     The Beach Boys - Pet Sounds (50th Anniversary DeLuxe Edition)
Disc Size:      21 977 743 861 bytes
Protection:     AACS
BD-Java:        Yes
BDInfo:         0.5.8
PLAYLIST REPORT:
Name:                   00003.MPLS
Length:                 0:37:29.038 (h:m:s.ms)
Size:                   3 385 476 288 bytes
Total Bitrate:          12,04 Mbps
VIDEO:
Codec                   Bitrate             Description
-----                   -------             -----------
MPEG-4 AVC Video        1998 kbps           1080p / 23,976 fps / 16:9 / High Profile 4.1
MPEG-4 AVC Video        19 kbps             480p / 23,976 fps / 16:9 / High Profile 3.2
AUDIO:
Codec                           Language        Bitrate         Description
-----                           --------        -------         -----------
LPCM Audio                      English         9216 kbps       2.0 / 192 kHz / 9216 kbps / 24-bit
FILES:
Name            Time In         Length          Size            Total Bitrate
----            -------         ------          ----            -------------
00003.M2TS      0:00:00.000     0:37:29.038     3 385 476 288   12 042
CHAPTERS:
Number          Time In         Length          Avg Video Rate  Max 1-Sec Rate  Max 1-Sec Time  Max 5-Sec Rate  Max 5-Sec Time  Max 10Sec Rate  Max 10Sec Time  Avg Frame Size  Max Frame Size  Max Frame Time
------          -------         ------          --------------  --------------  --------------  --------------  --------------  --------------  --------------  --------------  --------------  --------------
1               0:00:00.000     0:37:29.038     1 998 kbps      4 297 kbps      00:07:26.487    2 393 kbps      00:07:26.654    2 258 kbps      00:07:26.571    10 417 bytes    217 260 bytes   00:17:17.411
STREAM DIAGNOSTICS:
File            PID             Type            Codec           Language                Seconds                 Bitrate                 Bytes           Packets
----            ---             ----            -----           --------                --------------          --------------          -------------   -----
00003.M2TS      4113 (0x1011)   0x1B            AVC                                     2248,955                1 998                   561 592 852     3 083 901
00003.M2TS      4352 (0x1100)   0x80            LPCM            eng (English)           2248,955                9 220                   2 592 054 598   14 390 310
00003.M2TS      6912 (0x1B00)   0x1B            AVC                                     2248,955                19                      5 349 957       56 334
<---- END FORUMS PASTE ---->
QUICK SUMMARY:
Disc Title: The Beach Boys - Pet Sounds (50th Anniversary DeLuxe Edition)Disc Size: 21 977 743 861 bytesProtection: AACSBD-Java: YesPlaylist: 00003.MPLSSize: 3 385 476 288 bytesLength: 0:37:29.038Total Bitrate: 12,04 MbpsVideo: MPEG-4 AVC Video / 1998 kbps / 1080p / 23,976 fps / 16:9 / High Profile 4.1Video: MPEG-4 AVC Video / 19 kbps / 480p / 23,976 fps / 16:9 / High Profile 3.2Audio: English / LPCM Audio / 2.0 / 192 kHz / 9216 kbps / 24-bit
********************PLAYLIST: 01003.MPLS********************
<--- BEGIN FORUMS PASTE --->
Total   Video
Title                                                           Codec   Length  Movie Size      Disc Size       Bitrate Bitrate Main Audio Track                          Secondary Audio Track
-----                                                           ------  ------- --------------  --------------  ------- ------- ------------------                        ---------------------
01003.MPLS                                                      AVC     0:37:29 3 385 476 288   21 977 743 861  12,04   2,00    LPCM 2.0 9216Kbps (192kHz/24-bit)
DISC INFO:
Disc Title:     The Beach Boys - Pet Sounds (50th Anniversary DeLuxe Edition)
Disc Size:      21 977 743 861 bytes
Protection:     AACS
BD-Java:        Yes
BDInfo:         0.5.8
PLAYLIST REPORT:
Name:                   01003.MPLS
Length:                 0:37:29.038 (h:m:s.ms)
Size:                   3 385 476 288 bytes
Total Bitrate:          12,04 Mbps
VIDEO:
Codec                   Bitrate             Description
-----                   -------             -----------
MPEG-4 AVC Video        1998 kbps           1080p / 23,976 fps / 16:9 / High Profile 4.1
MPEG-4 AVC Video        19 kbps             480p / 23,976 fps / 16:9 / High Profile 3.2
AUDIO:
Codec                           Language        Bitrate         Description
-----                           --------        -------         -----------
LPCM Audio                      English         9216 kbps       2.0 / 192 kHz / 9216 kbps / 24-bit
FILES:
Name            Time In         Length          Size            Total Bitrate
----            -------         ------          ----            -------------
00003.M2TS      0:00:00.000     0:37:29.038     3 385 476 288   12 042
CHAPTERS:
Number          Time In         Length          Avg Video Rate  Max 1-Sec Rate  Max 1-Sec Time  Max 5-Sec Rate  Max 5-Sec Time  Max 10Sec Rate  Max 10Sec Time  Avg Frame Size  Max Frame Size  Max Frame Time
------          -------         ------          --------------  --------------  --------------  --------------  --------------  --------------  --------------  --------------  --------------  --------------
1               0:00:00.000     0:02:32.402     2 012 kbps      3 017 kbps      00:00:03.378    2 180 kbps      00:00:01.626    2 139 kbps      00:00:01.584    10 485 bytes    217 155 bytes   00:02:32.318
2               0:02:32.402     0:02:37.198     1 989 kbps      2 824 kbps      00:02:40.618    2 069 kbps      00:02:43.788    2 065 kbps      00:03:21.159    10 370 bytes    217 217 bytes   00:04:41.698
3               0:05:09.600     0:02:30.483     2 009 kbps      4 297 kbps      00:07:26.487    2 393 kbps      00:07:26.654    2 258 kbps      00:07:26.571    10 473 bytes    217 231 bytes   00:06:42.235
4               0:07:40.084     0:02:57.302     1 998 kbps      2 836 kbps      00:07:46.257    2 076 kbps      00:07:42.962    2 071 kbps      00:07:44.255    10 414 bytes    217 175 bytes   00:08:46.901
5               0:10:37.386     0:03:07.729     1 997 kbps      2 820 kbps      00:13:19.256    2 069 kbps      00:11:43.160    2 065 kbps      00:12:56.108    10 414 bytes    217 230 bytes   00:11:47.665
6               0:13:45.115     0:02:25.562     1 996 kbps      2 818 kbps      00:14:58.606    2 071 kbps      00:14:40.379    2 067 kbps      00:15:25.132    10 407 bytes    217 235 bytes   00:14:05.970
7               0:16:10.678     0:03:01.514     1 994 kbps      3 017 kbps      00:17:31.216    2 181 kbps      00:17:29.423    2 140 kbps      00:17:29.465    10 396 bytes    217 260 bytes   00:17:17.411
8               0:19:12.192     0:02:56.301     1 996 kbps      2 819 kbps      00:19:47.144    2 075 kbps      00:19:38.844    2 065 kbps      00:20:49.122    10 434 bytes    217 230 bytes   00:21:48.265
9               0:22:08.493     0:03:18.865     1 996 kbps      2 820 kbps      00:23:19.856    2 071 kbps      00:24:40.979    2 066 kbps      00:24:36.141    10 405 bytes    217 235 bytes   00:24:06.570
10              0:25:27.359     0:03:09.772     1 998 kbps      3 017 kbps      00:27:31.816    2 181 kbps      00:27:30.023    2 140 kbps      00:27:30.065    10 415 bytes    217 260 bytes   00:27:18.011
11              0:28:37.132     0:03:21.951     1 997 kbps      2 819 kbps      00:29:47.744    2 070 kbps      00:29:43.907    2 066 kbps      00:28:42.178    10 412 bytes    217 230 bytes   00:31:48.865
12              0:31:59.083     0:02:36.948     2 002 kbps      2 820 kbps      00:33:20.456    2 069 kbps      00:33:44.897    2 066 kbps      00:34:15.303    10 440 bytes    217 235 bytes   00:34:07.170
13              0:34:36.032     0:02:51.713     1 998 kbps      2 818 kbps      00:34:59.806    2 071 kbps      00:34:41.579    2 067 kbps      00:35:26.332    10 415 bytes    217 260 bytes   00:37:18.611
14              0:37:27.745     0:00:01.292     836 kbps        867 kbps        00:37:27.745    0 kbps          00:00:00.000    0 kbps          00:00:00.000    4 502 bytes     5 121 bytes     00:37:27.787
STREAM DIAGNOSTICS:
File            PID             Type            Codec           Language                Seconds                 Bitrate                 Bytes           Packets
----            ---             ----            -----           --------                --------------          --------------          -------------   -----
00003.M2TS      4113 (0x1011)   0x1B            AVC                                     2248,955                1 998                   561 592 852     3 083 901
00003.M2TS      4352 (0x1100)   0x80            LPCM            eng (English)           2248,955                9 220                   2 592 054 598   14 390 310
00003.M2TS      6912 (0x1B00)   0x1B            AVC                                     2248,955                19                      5 349 957       56 334
<---- END FORUMS PASTE ---->
QUICK SUMMARY:
Disc Title: The Beach Boys - Pet Sounds (50th Anniversary DeLuxe Edition)Disc Size: 21 977 743 861 bytesProtection: AACSBD-Java: YesPlaylist: 01003.MPLSSize: 3 385 476 288 bytesLength: 0:37:29.038Total Bitrate: 12,04 MbpsVideo: MPEG-4 AVC Video / 1998 kbps / 1080p / 23,976 fps / 16:9 / High Profile 4.1Video: MPEG-4 AVC Video / 19 kbps / 480p / 23,976 fps / 16:9 / High Profile 3.2Audio: English / LPCM Audio / 2.0 / 192 kHz / 9216 kbps / 24-bit
********************PLAYLIST: 00001.MPLS********************
<--- BEGIN FORUMS PASTE --->
Total   Video
Title                                                           Codec   Length  Movie Size      Disc Size       Bitrate Bitrate Main Audio Track                          Secondary Audio Track
-----                                                           ------  ------- --------------  --------------  ------- ------- ------------------                        ---------------------
00001.MPLS                                                      AVC     0:36:01 3 251 971 584   21 977 743 861  12,04   2,00    LPCM 2.0 9216Kbps (192kHz/24-bit)
DISC INFO:
Disc Title:     The Beach Boys - Pet Sounds (50th Anniversary DeLuxe Edition)
Disc Size:      21 977 743 861 bytes
Protection:     AACS
BD-Java:        Yes
BDInfo:         0.5.8
PLAYLIST REPORT:
Name:                   00001.MPLS
Length:                 0:36:01.200 (h:m:s.ms)
Size:                   3 251 971 584 bytes
Total Bitrate:          12,04 Mbps
VIDEO:
Codec                   Bitrate             Description
-----                   -------             -----------
MPEG-4 AVC Video        1996 kbps           1080p / 23,976 fps / 16:9 / High Profile 4.1
MPEG-4 AVC Video        19 kbps             480p / 23,976 fps / 16:9 / High Profile 3.2
AUDIO:
Codec                           Language        Bitrate         Description
-----                           --------        -------         -----------
LPCM Audio                      English         9216 kbps       2.0 / 192 kHz / 9216 kbps / 24-bit
FILES:
Name            Time In         Length          Size            Total Bitrate
----            -------         ------          ----            -------------
00001.M2TS      0:00:00.000     0:36:01.200     3 251 971 584   12 038
CHAPTERS:
Number          Time In         Length          Avg Video Rate  Max 1-Sec Rate  Max 1-Sec Time  Max 5-Sec Rate  Max 5-Sec Time  Max 10Sec Rate  Max 10Sec Time  Avg Frame Size  Max Frame Size  Max Frame Time
------          -------         ------          --------------  --------------  --------------  --------------  --------------  --------------  --------------  --------------  --------------  --------------
1               0:00:00.000     0:36:01.200     1 996 kbps      3 017 kbps      00:30:05.178    2 181 kbps      00:00:01.584    2 140 kbps      00:00:01.626    10 413 bytes    217 260 bytes   00:09:50.172
STREAM DIAGNOSTICS:
File            PID             Type            Codec           Language                Seconds                 Bitrate                 Bytes           Packets
----            ---             ----            -----           --------                --------------          --------------          -------------   -----
00001.M2TS      4113 (0x1011)   0x1B            AVC                                     2161,117                1 996                   539 114 098     2 960 441
00001.M2TS      4352 (0x1100)   0x80            LPCM            eng (English)           2161,117                9 215                   2 489 320 006   13 820 017
00001.M2TS      6912 (0x1B00)   0x1B            AVC                                     2161,117                19                      5 141 158       54 136
<---- END FORUMS PASTE ---->
QUICK SUMMARY:
Disc Title: The Beach Boys - Pet Sounds (50th Anniversary DeLuxe Edition)Disc Size: 21 977 743 861 bytesProtection: AACSBD-Java: YesPlaylist: 00001.MPLSSize: 3 251 971 584 bytesLength: 0:36:01.200Total Bitrate: 12,04 MbpsVideo: MPEG-4 AVC Video / 1996 kbps / 1080p / 23,976 fps / 16:9 / High Profile 4.1Video: MPEG-4 AVC Video / 19 kbps / 480p / 23,976 fps / 16:9 / High Profile 3.2Audio: English / LPCM Audio / 2.0 / 192 kHz / 9216 kbps / 24-bit
********************PLAYLIST: 01000.MPLS********************
<--- BEGIN FORUMS PASTE --->
Total   Video
Title                                                           Codec   Length  Movie Size      Disc Size       Bitrate Bitrate Main Audio Track                          Secondary Audio Track
-----                                                           ------  ------- --------------  --------------  ------- ------- ------------------                        ---------------------
01000.MPLS                                                      AVC     0:36:01 3 251 971 584   21 977 743 861  12,04   2,00    LPCM 2.0 9216Kbps (192kHz/24-bit)
DISC INFO:
Disc Title:     The Beach Boys - Pet Sounds (50th Anniversary DeLuxe Edition)
Disc Size:      21 977 743 861 bytes
Protection:     AACS
BD-Java:        Yes
BDInfo:         0.5.8
PLAYLIST REPORT:
Name:                   01000.MPLS
Length:                 0:36:01.200 (h:m:s.ms)
Size:                   3 251 971 584 bytes
Total Bitrate:          12,04 Mbps
VIDEO:
Codec                   Bitrate             Description
-----                   -------             -----------
MPEG-4 AVC Video        1996 kbps           1080p / 23,976 fps / 16:9 / High Profile 4.1
MPEG-4 AVC Video        19 kbps             480p / 23,976 fps / 16:9 / High Profile 3.2
AUDIO:
Codec                           Language        Bitrate         Description
-----                           --------        -------         -----------
LPCM Audio                      English         9216 kbps       2.0 / 192 kHz / 9216 kbps / 24-bit
FILES:
Name            Time In         Length          Size            Total Bitrate
----            -------         ------          ----            -------------
00001.M2TS      0:00:00.000     0:36:01.200     3 251 971 584   12 038
CHAPTERS:
Number          Time In         Length          Avg Video Rate  Max 1-Sec Rate  Max 1-Sec Time  Max 5-Sec Rate  Max 5-Sec Time  Max 10Sec Rate  Max 10Sec Time  Avg Frame Size  Max Frame Size  Max Frame Time
------          -------         ------          --------------  --------------  --------------  --------------  --------------  --------------  --------------  --------------  --------------  --------------
1               0:00:00.000     0:02:25.687     2 011 kbps      3 017 kbps      00:00:03.378    2 181 kbps      00:00:01.584    2 140 kbps      00:00:01.626    10 482 bytes    217 175 bytes   00:01:19.662
2               0:02:25.687     0:02:30.733     1 996 kbps      2 819 kbps      00:02:40.702    2 069 kbps      00:04:15.922    2 065 kbps      00:03:21.284    10 406 bytes    217 230 bytes   00:04:20.426
3               0:04:56.421     0:02:27.689     1 993 kbps      2 820 kbps      00:05:52.018    2 071 kbps      00:07:13.141    2 066 kbps      00:07:08.302    10 392 bytes    217 235 bytes   00:06:38.731
4               0:07:24.110     0:02:52.130     1 997 kbps      3 017 kbps      00:10:03.978    2 181 kbps      00:10:02.184    2 140 kbps      00:10:02.226    10 409 bytes    217 260 bytes   00:09:50.172
5               0:10:16.240     0:03:04.392     1 986 kbps      2 836 kbps      00:10:19.619    2 076 kbps      00:10:16.324    2 068 kbps      00:11:00.034    10 403 bytes    217 175 bytes   00:11:20.262
6               0:13:20.633     0:02:17.470     2 002 kbps      2 817 kbps      00:14:41.755    2 069 kbps      00:14:16.522    2 065 kbps      00:13:21.884    10 439 bytes    217 230 bytes   00:14:21.026
7               0:15:38.103     0:02:57.760     1 995 kbps      2 820 kbps      00:15:52.618    2 071 kbps      00:17:13.741    2 067 kbps      00:17:58.494    10 399 bytes    217 235 bytes   00:16:39.331
8               0:18:35.864     0:02:51.129     2 003 kbps      3 017 kbps      00:20:04.578    2 181 kbps      00:20:02.784    2 140 kbps      00:20:02.826    10 443 bytes    217 260 bytes   00:19:50.772
9               0:21:26.994     0:03:10.648     1 977 kbps      2 819 kbps      00:22:20.505    2 070 kbps      00:22:16.668    2 066 kbps      00:22:11.663    10 357 bytes    217 230 bytes   00:24:21.626
10              0:24:37.642     0:02:53.840     2 006 kbps      2 820 kbps      00:25:53.218    2 071 kbps      00:27:14.341    2 066 kbps      00:27:09.502    10 461 bytes    217 235 bytes   00:26:39.931
11              0:27:31.483     0:03:13.109     1 999 kbps      3 017 kbps      00:30:05.178    2 180 kbps      00:30:03.426    2 140 kbps      00:30:03.426    10 420 bytes    217 260 bytes   00:29:51.372
12              0:30:44.592     0:02:21.933     1 996 kbps      2 821 kbps      00:31:31.556    2 070 kbps      00:30:44.884    2 067 kbps      00:31:01.317    10 406 bytes    217 153 bytes   00:33:06.150
13              0:33:06.526     0:02:52.630     1 991 kbps      2 820 kbps      00:35:32.630    2 068 kbps      00:35:07.355    2 065 kbps      00:35:23.621    10 380 bytes    217 181 bytes   00:34:22.226
14              0:35:59.156     0:00:02.043     1 699 kbps      2 608 kbps      00:35:59.156    0 kbps          00:00:00.000    0 kbps          00:00:00.000    9 044 bytes     213 432 bytes   00:35:59.740
STREAM DIAGNOSTICS:
File            PID             Type            Codec           Language                Seconds                 Bitrate                 Bytes           Packets
----            ---             ----            -----           --------                --------------          --------------          -------------   -----
00001.M2TS      4113 (0x1011)   0x1B            AVC                                     2161,117                1 996                   539 114 098     2 960 441
00001.M2TS      4352 (0x1100)   0x80            LPCM            eng (English)           2161,117                9 215                   2 489 320 006   13 820 017
00001.M2TS      6912 (0x1B00)   0x1B            AVC                                     2161,117                19                      5 141 158       54 136
<---- END FORUMS PASTE ---->
QUICK SUMMARY:
Disc Title: The Beach Boys - Pet Sounds (50th Anniversary DeLuxe Edition)Disc Size: 21 977 743 861 bytesProtection: AACSBD-Java: YesPlaylist: 01000.MPLSSize: 3 251 971 584 bytesLength: 0:36:01.200Total Bitrate: 12,04 MbpsVideo: MPEG-4 AVC Video / 1996 kbps / 1080p / 23,976 fps / 16:9 / High Profile 4.1Video: MPEG-4 AVC Video / 19 kbps / 480p / 23,976 fps / 16:9 / High Profile 3.2Audio: English / LPCM Audio / 2.0 / 192 kHz / 9216 kbps / 24-bit
Источник (релизер): собственный рип
CD можете скачать здесь.

Если ваш рейтинг упадет ниже 0,3, вы не сможете скачивать торренты! Подробнее о рейтинге.

[asmlocator.ru].t343470.torrent 
Торрент: Зарегистрирован [ 2017-04-21 06:30 ] · 22E3E819E1054799C5E6B9F18BA93CF940664154

Скачать .torrent

Скачать

56 KB

Статус: проверено
Скачан: 0 раз
Размер: 20,47 GB
terms.php
[Профиль] [ЛС]
Показать сообщения:    
Ответить на тему

Текущее время: 28-Апр 06:13

Часовой пояс: UTC ± 0



Вы не можете начинать темы
Вы не можете отвечать на сообщения
Вы не можете редактировать свои сообщения
Вы не можете удалять свои сообщения
Вы не можете голосовать в опросах
Вы не можете прикреплять файлы к сообщениям
Вы можете скачивать файлы