(Американский английский язык) Macmillan - Family Album USA / Семейный Альбом США - курс обучения английскому языку [1991, MP4, VHSrip, SUB, ENG]

Ответить на тему
Статистика раздачи
Размер:  4,44 GB   |    Зарегистрирован:  3 месяца 29 дней   |    Скачан:  0 раз

Полного источника не было: 7 дней

 
   
 
 
Автор Сообщение

star21 ®

Пол: Не указан

Стаж: 1 год 9 месяцев

Сообщений: 355778

Создавать темы 19-Апр-2017 08:15

[Цитировать]

Macmillan - Family Album USA / Семейный Альбом США - курс обучения английскому языку
Год выпуска: 1991
Производитель: The Dovetail Group
Издатель: Maxwell Macmillan International
Категория: Обучающий фильм
Язык: Английский
Титры: Английский (неотключаемые/вшитые)
Видео: MP4, H.264, 720x480, 25 fps, 1000 kbps
Аудио: AAC, stereo, 44 kHz, 128 kbps
Хронометраж: 9 ч 22 мин
Описание: Телевизионный курс обучения английскому языку, позднее выпускавшийся на видеокассетах.
Полный курс в одном файле. 26 серий.
Язык простой (Elementary). Картинка старотелевизионная.
Фильм может быть полезен на начальной стадии изучения английского языка.
VHSrip - качество для просмотра на телефоне
Видео без чёрных полос. Обложка добавлена. Теги и главы прописаны
Может воспроизводиться почти на всех устройствах,
в т.ч. с
iOS, Android, CarPlay, Philips, Sony, Panasonic
Не уходите с раздачи.
Такой компоновки нет больше нигде!

Скриншоты

Media Info

General
Complete name : Family Album USA 1991.mp4
Format : MPEG-4
Format profile : Base Media / Version 2
Codec ID : mp42 (mp42/isom)
File size : 4.44 GiB
Duration : 9 h 22 min
Overall bit rate mode : Variable
Overall bit rate : 1 129 kb/s
Season : 0
Movie name : Family Album U.S.A.
Part : 0
Performer : Steven Culp, Amy Van Nostrand, Robert Donley, Ray Dash, Lucy Martin, Adam Biesk, Susan Bigelow, Mark Zimmerman, Jenna Von Oy, Petronia Paley, Kathryn Marcopulos
Director : Karen Peratt
Actor : Steven Culp / Amy Van Nostrand / Robert Donley / Ray Dash / Lucy Martin / Adam Biesk / Susan Bigelow / Mark Zimmerman / Jenna Von Oy / Petronia Paley / Kathryn Marcopulos
Screenplay by : Howard Beckerman / Tina Peel
Producer : Alvin Cooperman / George Lefferts
Production studio : The Dovetail Group
Genre : Education
ContentType : Short Film
Description : Television course teaching English on an example of American everyday life.
Recorded date : 1991
Writing application : Final Cut Pro X / AVG 2017
Copyright : Maxwell Macmillan International
Cover : Yes
Comment : AVG 2017
Rating : Clean
Xtra : WM/Category
ContentRating : mpaa|G|100|
LongDescription : Television course teaching English on an example of American everyday life. / The storyline narrates the Stewart's family life in New York City. Richard Stewart is a professional photografer who decided to make a book of pictures about the USA, called "Family Album U.S.A.".
Keyword : English, American, USA
Category : Education
AppleStoreCatalogID : 0
Video
ID : 2
Format : AVC
Format/Info : Advanced Video Codec
Format profile : Main@L3
Format settings, CABAC : Yes
Format settings, ReFrames : 3 frames
Format settings, GOP : M=4, N=15
Codec ID : avc1
Codec ID/Info : Advanced Video Coding
Duration : 9 h 22 min
Bit rate mode : Variable
Bit rate : 996 kb/s
Maximum bit rate : 4 000 kb/s
Width : 720 pixels
Height : 480 pixels
Display aspect ratio : 3:2
Frame rate mode : Constant
Frame rate : 25.000 FPS
Standard : NTSC
Color space : YUV
Chroma subsampling : 4:2:0
Bit depth : 8 bits
Scan type : Progressive
Bits/(Pixel*Frame) : 0.115
Stream size : 3.92 GiB (88%)
Language : English
Color range : Limited
Audio
ID : 1
Format : AAC
Format/Info : Advanced Audio Codec
Format profile : LC
Codec ID : 40
Duration : 9 h 22 min
Bit rate mode : Variable
Bit rate : 128 kb/s
Maximum bit rate : 135 kb/s
Channel(s) : channel0
Channel(s)_Original : 2 channels
Channel positions : Front: L R
Sampling rate : 44.1 kHz
Frame rate : 43.066 FPS (1024 spf)
Compression mode : Lossy
Stream size : 516 MiB (11%)
Language : English
Menu
ID : 23
Codec ID : text
Duration : 9 h 22 min
Language : English
Menu For : 1
00:00:00.000 : 01 - 46 Linden Street
00:22:42.000 : 02 - The Blind Date
00:44:18.000 : 03 - Grandpa's Trunk
01:05:53.000 : 04 - A Piece of Cake
01:27:27.000 : 05 - The Right Magic
01:49:02.000 : 06 - Thanksgiving
02:10:35.000 : 07 - Man's Best Friend
02:32:10.000 : 08 - You're Going to Be Fine
02:53:45.000 : 09 - It's Up to You
03:15:20.000 : 10 - Smell the Flowers
03:36:55.000 : 11 - A Place of Our Own
03:58:27.000 : 12 - You're Tops
04:19:59.000 : 13 - A Real Stewart
04:41:32.000 : 14 - Playing Games
05:03:06.000 : 15 - Second Honeymoon
05:24:41.000 : 16 - Full of Surprise
05:46:14.000 : 17 - Photo Finish
06:07:48.000 : 18 - Making a Difference
06:29:23.000 : 19 - I Do
06:50:57.000 : 20 - Quality Time
07:12:32.000 : 21 - A Big Fish in a Little Pond
07:34:08.000 : 22 - Career Choices
07:55:44.000 : 23 - The Community Center
08:17:16.000 : 24 - Parting Friends
08:38:51.000 : 25 - Country Music
09:00:24.000 : 26 - Opening Night
Bit rate mode : VBR

Для скачки контента: [Установить программу-клиент] и кликнуть по - Скачать

[asmlocator.ru].t343345.torrent 
Торрент: Зарегистрирован [ 2017-04-19 08:15 ] · 0138983D737695B6E9611EA6B5CFD940FAC105D9

Скачать .torrent

Скачать

23 KB

Статус: проверено
Скачан: 0 раз
Размер: 4,44 GB
terms.php
[Профиль] [ЛС]
Показать сообщения:    
Ответить на тему

Текущее время: 19-Авг 07:13

Часовой пояс: UTC ± 0



Вы не можете начинать темы
Вы не можете отвечать на сообщения
Вы не можете редактировать свои сообщения
Вы не можете удалять свои сообщения
Вы не можете голосовать в опросах
Вы не можете прикреплять файлы к сообщениям
Вы можете скачивать файлы