[Детский аудиоспектакль] Кэрролл Льюис: Алиса в стране чудес (Два издания: 1996 и 2008 г.) [Всеволод Абдулов, Всеволод Шиловский, Владимир Высоцкий, Галина Иванова, Клара Румянова, 1976, lossless]

Ответить на тему
Статистика раздачи
Размер:  1,11 GB   |    Зарегистрирован:  7 месяцев 23 дня   |    Скачан:  0 раз

Полного источника не было: Никогда

 
   
 
 
Автор Сообщение

star21 ®

Пол: Не указан

Стаж: 2 года 1 месяц

Сообщений: 354226

Создавать темы 18-Апр-2017 19:15

[Цитировать]

Алиса в стране чудес
Год записи аудиоспектакля: 1976
Автор: Льюис Кэрролл
Жанр: Аудиоспектакль
Аудиокодек: WavPack
Тип рипа: image+.cue
Битрейт: lossless
Источник: ley-barmaley / lossless-galaxy
Сканирование: full scans (JPG, 450dpi)
Исполнители:
Кэрролл, Додо, Чеширский кот, Улыбка, Синяя гусеница – Всеволод Абдулов
Алиса – Галина Иванова (поёт Клара Румянова)
Белый кролик – Всеволод Шиловский
Мышь, Ореховая соня, Поросёнок – Клара Румянова
Попугай, Орлёнок Эд – Владимир Высоцкий
Билль, Шляпник – Михаил Лобанов
Джим, Мартовский заяц, Валет, Палач, Лягушонок – Виктор Петров (песню Лягушонка поёт Владимир Голышев)
Герцогиня – Евгения Ханаева
Королева, Кухарка – Наталья Вихрова
Король, Судья, Садовник – Олег Герасимов
Атака Гризли, Дама-антипод – Наталья Назарова
В эпизодах - артисты МХАТ
Инструментальный ансамбль п/у Мартина Нерсесяна
Соло на скрипке: Григорий Кемлин
Инсценировка: Олег Герасимов
Слова и мелодии песен: Владимир Высоцкий
Музыка: Евгений Геворгян


Издатель, номер по каталогу: Симаз, AR 006-2, Double CD
Производитель диска: Czech Republic
Год выпуска CD: 1996
Время звучания: 1:30:54

EAC log CD1

Exact Audio Copy V1.0 beta 3 from 29. August 2011
Отчёт EAC об извлечении, выполненном 9. марта 2017, 12:35
Различные исполнители / Алиса в стране чудес (AR 006-2) (CD1)
Дисковод: ASUS CRW-5232AS Adapter: 0 ID: 0
Режим чтения : ДостоверностьИспользование точного потока : ДаОтключение кэша аудио : ДаИспользование указателей C2 : Нет
Коррекция смещения при чтении : 6Способность читать области Lead-in и Lead-out : НетЗаполнение пропущенных сэмплов тишиной : ДаУдаление блоков с тишиной в начале и конце : НетПри вычислениях CRC использовались нулевые сэмплы : ДаИнтерфейс : Встроенный Win32-интерфейс для Win NT/2000
Выходной формат : Внутренние WAV-операцииФормат сэмплов : 44.100 Гц; 16 бит; стерео
TOC извлечённого CD
Трек | Старт | Длительность | Начальный сектор | Конечный сектор --------------------------------------------------------------------- 1 | 0:00.00 | 0:37.35 | 0 | 2809 2 | 0:37.35 | 1:03.10 | 2810 | 7544 3 | 1:40.45 | 1:15.02 | 7545 | 13171 4 | 2:55.47 | 1:18.60 | 13172 | 19081 5 | 4:14.32 | 0:27.10 | 19082 | 21116 6 | 4:41.42 | 2:10.05 | 21117 | 30871 7 | 6:51.47 | 0:50.08 | 30872 | 34629 8 | 7:41.55 | 1:00.07 | 34630 | 39136 9 | 8:41.62 | 1:03.48 | 39137 | 43909 10 | 9:45.35 | 1:05.00 | 43910 | 48784 11 | 10:50.35 | 3:05.10 | 48785 | 62669 12 | 13:55.45 | 1:05.02 | 62670 | 67546 13 | 15:00.47 | 0:31.23 | 67547 | 69894 14 | 15:31.70 | 0:44.37 | 69895 | 73231 15 | 16:16.32 | 4:10.13 | 73232 | 91994 16 | 20:26.45 | 0:38.72 | 91995 | 94916 17 | 21:05.42 | 2:03.43 | 94917 | 104184 18 | 23:09.10 | 0:46.17 | 104185 | 107651 19 | 23:55.27 | 0:18.40 | 107652 | 109041 20 | 24:13.67 | 0:35.40 | 109042 | 111706 21 | 24:49.32 | 1:15.10 | 111707 | 117341 22 | 26:04.42 | 0:37.63 | 117342 | 120179 23 | 26:42.30 | 0:06.57 | 120180 | 120686 24 | 26:49.12 | 0:55.43 | 120687 | 124854 25 | 27:44.55 | 1:14.52 | 124855 | 130456 26 | 28:59.32 | 0:55.18 | 130457 | 134599 27 | 29:54.50 | 0:30.15 | 134600 | 136864 28 | 30:24.65 | 2:44.02 | 136865 | 149166 29 | 33:08.67 | 1:17.55 | 149167 | 154996 30 | 34:26.47 | 0:36.23 | 154997 | 157719 31 | 35:02.70 | 2:45.47 | 157720 | 170141 32 | 37:48.42 | 0:39.25 | 170142 | 173091 33 | 38:27.67 | 0:40.53 | 173092 | 176144 34 | 39:08.45 | 0:39.07 | 176145 | 179076 35 | 39:47.52 | 3:00.13 | 179077 | 192589 36 | 42:47.65 | 0:41.30 | 192590 | 195694 37 | 43:29.20 | 2:56.07 | 195695 | 208901 38 | 46:25.27 | 0:40.60 | 208902 | 211961 39 | 47:06.12 | 1:20.33 | 211962 | 217994 40 | 48:26.45 | 0:43.67 | 217995 | 221286
Характеристики диапазона извлечения и сообщения об ошибках
Выбранный диапазон
Имя файла G:\ley-barmaley\музыкальные сказки на сайте lossless-galaxy.ru\Алиса в стране чудес (AR 006-2) (CD1).wav
Пиковый уровень 100.0 % Скорость извлечения 8.0 X Качество диапазона 99.9 % CRC теста 16D1DC22 CRC копии 16D1DC22 Копирование... OK
Ошибок не произошло
AccurateRip: сводка
Трек 1 отсутствует в базе данныхТрек 2 отсутствует в базе данныхТрек 3 отсутствует в базе данныхТрек 4 отсутствует в базе данныхТрек 5 отсутствует в базе данныхТрек 6 отсутствует в базе данныхТрек 7 отсутствует в базе данныхТрек 8 отсутствует в базе данныхТрек 9 отсутствует в базе данныхТрек 10 отсутствует в базе данныхТрек 11 отсутствует в базе данныхТрек 12 отсутствует в базе данныхТрек 13 отсутствует в базе данныхТрек 14 отсутствует в базе данныхТрек 15 отсутствует в базе данныхТрек 16 отсутствует в базе данныхТрек 17 отсутствует в базе данныхТрек 18 отсутствует в базе данныхТрек 19 отсутствует в базе данныхТрек 20 отсутствует в базе данныхТрек 21 отсутствует в базе данныхТрек 22 отсутствует в базе данныхТрек 23 отсутствует в базе данныхТрек 24 отсутствует в базе данныхТрек 25 отсутствует в базе данныхТрек 26 отсутствует в базе данныхТрек 27 отсутствует в базе данныхТрек 28 отсутствует в базе данныхТрек 29 отсутствует в базе данныхТрек 30 отсутствует в базе данныхТрек 31 отсутствует в базе данныхТрек 32 отсутствует в базе данныхТрек 33 отсутствует в базе данныхТрек 34 отсутствует в базе данныхТрек 35 отсутствует в базе данныхТрек 36 отсутствует в базе данныхТрек 37 отсутствует в базе данныхТрек 38 отсутствует в базе данныхТрек 39 отсутствует в базе данныхТрек 40 отсутствует в базе данных
Ни одного трека нет в базе AccurateRip
Конец отчёта
---- CUETools DB Plugin V2.1.3
[CTDB TOCID: iMX8H_LgoeeAEZnLEUrdE1koawk-] found, Submit result: iMX8H_LgoeeAEZnLEUrdE1koawk- has been confirmed[e470310b] (3/3) Accurately ripped
==== Контрольная сумма отчёта 0D25660E6C0DDE37B99524E7AB49FCFFB5B757B4643A538A89D23C7EEAD19F8E ====

EAC log CD2

Exact Audio Copy V1.0 beta 3 from 29. August 2011
Отчёт EAC об извлечении, выполненном 9. марта 2017, 13:20
Различные исполнители / Алиса в стране чудес (AR 006-2) (CD2)
Дисковод: ASUS CRW-5232AS Adapter: 0 ID: 0
Режим чтения : ДостоверностьИспользование точного потока : ДаОтключение кэша аудио : ДаИспользование указателей C2 : Нет
Коррекция смещения при чтении : 6Способность читать области Lead-in и Lead-out : НетЗаполнение пропущенных сэмплов тишиной : ДаУдаление блоков с тишиной в начале и конце : НетПри вычислениях CRC использовались нулевые сэмплы : ДаИнтерфейс : Встроенный Win32-интерфейс для Win NT/2000
Выходной формат : Внутренние WAV-операцииФормат сэмплов : 44.100 Гц; 16 бит; стерео
TOC извлечённого CD
Трек | Старт | Длительность | Начальный сектор | Конечный сектор --------------------------------------------------------------------- 1 | 0:00.00 | 0:25.57 | 0 | 1931 2 | 0:25.57 | 0:41.38 | 1932 | 5044 3 | 1:07.20 | 0:49.05 | 5045 | 8724 4 | 1:56.25 | 0:41.17 | 8725 | 11816 5 | 2:37.42 | 1:06.68 | 11817 | 16834 6 | 3:44.35 | 0:35.67 | 16835 | 19526 7 | 4:20.27 | 1:16.03 | 19527 | 25229 8 | 5:36.30 | 0:47.10 | 25230 | 28764 9 | 6:23.40 | 1:28.52 | 28765 | 35416 10 | 7:52.17 | 0:32.65 | 35417 | 37881 11 | 8:25.07 | 0:38.20 | 37882 | 40751 12 | 9:03.27 | 0:33.08 | 40752 | 43234 13 | 9:36.35 | 0:27.57 | 43235 | 45316 14 | 10:04.17 | 1:22.40 | 45317 | 51506 15 | 11:26.57 | 1:27.73 | 51507 | 58104 16 | 12:54.55 | 0:22.40 | 58105 | 59794 17 | 13:17.20 | 0:38.42 | 59795 | 62686 18 | 13:55.62 | 0:41.35 | 62687 | 65796 19 | 14:37.22 | 1:53.13 | 65797 | 74284 20 | 16:30.35 | 0:51.27 | 74285 | 78136 21 | 17:21.62 | 0:26.33 | 78137 | 80119 22 | 17:48.20 | 0:37.02 | 80120 | 82896 23 | 18:25.22 | 0:10.70 | 82897 | 83716 24 | 18:36.17 | 0:55.28 | 83717 | 87869 25 | 19:31.45 | 0:27.47 | 87870 | 89941 26 | 19:59.17 | 3:16.25 | 89942 | 104666 27 | 23:15.42 | 2:18.50 | 104667 | 115066 28 | 25:34.17 | 2:19.13 | 115067 | 125504 29 | 27:53.30 | 1:03.00 | 125505 | 130229 30 | 28:56.30 | 1:18.67 | 130230 | 136146 31 | 30:15.22 | 0:37.13 | 136147 | 138934 32 | 30:52.35 | 1:08.27 | 138935 | 144061 33 | 32:00.62 | 0:37.30 | 144062 | 146866 34 | 32:38.17 | 1:04.50 | 146867 | 151716 35 | 33:42.67 | 0:33.00 | 151717 | 154191 36 | 34:15.67 | 1:03.45 | 154192 | 158961 37 | 35:19.37 | 0:09.05 | 158962 | 159641 38 | 35:28.42 | 1:27.05 | 159642 | 166171 39 | 36:55.47 | 3:04.48 | 166172 | 180019 40 | 40:00.20 | 0:36.72 | 180020 | 182791 41 | 40:37.17 | 1:06.08 | 182792 | 187749
Характеристики диапазона извлечения и сообщения об ошибках
Выбранный диапазон
Имя файла G:\ley-barmaley\музыкальные сказки на сайте lossless-galaxy.ru\Алиса в стране чудес (AR 006-2) (CD2).wav
Пиковый уровень 99.1 % Скорость извлечения 2.4 X Качество диапазона 100.0 % CRC теста AED49D9D CRC копии AED49D9D Копирование... OK
Ошибок не произошло
AccurateRip: сводка
Трек 1 отсутствует в базе данныхТрек 2 отсутствует в базе данныхТрек 3 отсутствует в базе данныхТрек 4 отсутствует в базе данныхТрек 5 отсутствует в базе данныхТрек 6 отсутствует в базе данныхТрек 7 отсутствует в базе данныхТрек 8 отсутствует в базе данныхТрек 9 отсутствует в базе данныхТрек 10 отсутствует в базе данныхТрек 11 отсутствует в базе данныхТрек 12 отсутствует в базе данныхТрек 13 отсутствует в базе данныхТрек 14 отсутствует в базе данныхТрек 15 отсутствует в базе данныхТрек 16 отсутствует в базе данныхТрек 17 отсутствует в базе данныхТрек 18 отсутствует в базе данныхТрек 19 отсутствует в базе данныхТрек 20 отсутствует в базе данныхТрек 21 отсутствует в базе данныхТрек 22 отсутствует в базе данныхТрек 23 отсутствует в базе данныхТрек 24 отсутствует в базе данныхТрек 25 отсутствует в базе данныхТрек 26 отсутствует в базе данныхТрек 27 отсутствует в базе данныхТрек 28 отсутствует в базе данныхТрек 29 отсутствует в базе данныхТрек 30 отсутствует в базе данныхТрек 31 отсутствует в базе данныхТрек 32 отсутствует в базе данныхТрек 33 отсутствует в базе данныхТрек 34 отсутствует в базе данныхТрек 35 отсутствует в базе данныхТрек 36 отсутствует в базе данныхТрек 37 отсутствует в базе данныхТрек 38 отсутствует в базе данныхТрек 39 отсутствует в базе данныхТрек 40 отсутствует в базе данныхТрек 41 отсутствует в базе данных
Ни одного трека нет в базе AccurateRip
Конец отчёта
---- CUETools DB Plugin V2.1.3
[CTDB TOCID: uLlpOCgAfXM5h5UPQr9TboH.X1g-] found, Submit result: uLlpOCgAfXM5h5UPQr9TboH.X1g- has been confirmed[662f7d68] (3/3) Accurately ripped
==== Контрольная сумма отчёта 475D089F57B0C1159DF61125CDF5143D5A1FC6B3E0519B81DD8681B6D2DA3025 ====

Dynamic Range Meter


foobar2000 1.3.8 / Dynamic Range Meter 1.1.1log date: 2017-03-14 16:43:09
--------------------------------------------------------------------------------Analyzed: Кэрролл, Додо, Чеширский кот, Улыбка, Синяя гусеница – Всеволод Абдулов; Алиса – Галина Иванова (поёт Клара Румянова); Белый кролик – Всеволод Шиловский; Мышь, Ореховая соня, Поросёнок – Клара Румянова; Попугай, Орлёнок Эд – Владимир Высоцкий; Билль, Шляпник – Михаил Лобанов; Джим, Мартовский заяц, Валет, Палач, Лягушонок – Виктор Петров (песню Лягушонка поёт Владимир Голышев); Герцогиня – Евгения Ханаева; Королева, Кухарка – Наталья Вихрова; Король, Судья, Садовник – Олег Герасимов; Атака Гризли, Дама-антипод – Наталья Назарова. В эпизодах - артисты МХАТ. Инструментальный ансамбль п/у Мартина Нерсесяна. Соло на скрипке: Григорий Кемлин. Инсценировка: Олег Герасимов. Слова и мелодии песен: Владимир Высоцкий. Музыка: Евгений Геворгян / Алиса в стране чудес (Симаз, AR 006-2, Double CD)--------------------------------------------------------------------------------
DR Peak RMS Duration Track--------------------------------------------------------------------------------DR13 -2.11 dB -19.25 dB 0:37 01-Где начинается леньDR13 -4.98 dB -21.02 dB 1:03 02-Песня Кэрролла (часть 1)DR14 -3.43 dB -19.78 dB 1:15 03-Про Льюиса Кэрролла и путаницуDR14 -0.43 dB -17.86 dB 1:19 04-Песня Кэрролла (часть 2)DR13 -2.21 dB -20.50 dB 0:27 05-Сказка начинается: Алиса сидела на берегу реки ...DR13 0.00 dB -17.59 dB 2:10 06-Песня АлисыDR13 -0.02 dB -16.47 dB 0:50 07-Про Белого кролика и птицу ДодоDR12 -0.35 dB -17.28 dB 1:00 08-Песня Кэрролла (часть 3)DR15 0.00 dB -19.87 dB 1:04 09-Белый кролик, часы со звоном и опозданияDR15 -0.20 dB -18.79 dB 1:05 10-Додо и Белый кроликDR13 -0.21 dB -17.42 dB 3:05 11-Алиса падает в большой колодецDR13 -0.20 dB -16.30 dB 1:05 12-Марш антиподовDR12 -6.67 dB -24.21 dB 0:31 13-Алиса продолжает падатьDR12 -3.47 dB -18.80 dB 0:44 14-Падение АлисыDR15 -1.21 dB -21.08 dB 2:04 17-Пирожок «съешь меня». Белый кролик опаздывает. Путаница АлисыDR13 -3.76 dB -22.44 dB 0:19 19-Про Мэри ЭннDR13 -0.68 dB -18.59 dB 0:36 20-Про Мэри Энн (часть 2)DR14 -1.58 dB -19.35 dB 1:15 21-Алиса оказывается в море из своих слёзDR11 -3.28 dB -18.74 dB 0:38 22-В море слёзDR14 -4.73 dB -22.85 dB 0:07 23-Мышь попадает в море слёзDR13 -1.28 dB -18.21 dB 0:56 24-Песня Мыши (часть 1)DR15 -0.20 dB -19.90 dB 1:15 25-Алиса и Мышь ведут светскую беседуDR12 -1.14 dB -16.83 dB 0:55 26-Песня Мыши (часть 2)DR13 -0.21 dB -16.83 dB 0:30 27-Слёзное море наполняется другими персонажамиDR13 -0.20 dB -16.85 dB 2:44 28-Песня ПопугаяDR14 -0.22 dB -18.63 dB 1:18 29-Алиса хочет согреться. Представление персонажейDR12 -0.20 dB -17.20 dB 0:36 30-Песня орлёнка ЭдаDR15 -0.20 dB -19.56 dB 2:46 31-Продолжение знакомств. Лекция Мыши. Странные скачкиDR12 -0.21 dB -17.47 dB 0:39 32-Странные скачкиDR14 -0.86 dB -20.80 dB 0:41 33-Все исчезают. Алиса опять встречает Белого кроликаDR13 -0.32 dB -17.83 dB 0:39 34-Песня Алисы про цифры (часть 2)DR13 -0.20 dB -16.57 dB 0:41 36-Песенка Джимми и Билли (часть 1)DR13 -0.20 dB -16.36 dB 2:56 37-В парнике. Рука Алисы. Полёт БилляDR14 -0.20 dB -17.10 dB 0:41 38-Песенка Джимми и Билли (часть 2)DR13 -0.20 dB -17.18 dB 1:20 39-Алиса убегает от кролика в лесDR15 -0.20 dB -17.67 dB 0:44 40-Песенка Джимми и Билли (часть 3)DR16 -2.49 dB -21.32 dB 0:26 41-Алиса в лесу из травы и цветовDR13 -0.07 dB -18.68 dB 0:42 42-Песня о планах (часть 1)DR16 -0.24 dB -19.33 dB 0:49 43-Алиса составляет планDR13 -0.83 dB -18.16 dB 0:41 44-Песня о планах (часть 2)DR13 -0.15 dB -17.06 dB 1:07 45-Синяя гусеница на грибеDR14 -1.03 dB -17.89 dB 0:36 46-Песня о планах (часть 3)DR12 -0.20 dB -15.04 dB 1:16 47-Путаница Алисы и гусеницыDR12 -0.21 dB -15.21 dB 0:47 48-Путаница АлисыDR14 -0.20 dB -18.20 dB 1:29 49-Тайна гриба. Лягушонок в ливрееDR13 -0.63 dB -18.18 dB 0:33 50-Песня Лягушонка (часть 1)DR13 -0.20 dB -17.27 dB 0:38 51-Стоит ли входить в дом?DR14 -0.52 dB -18.60 dB 0:33 52-Песня Лягушонка (часть 2)DR15 -0.21 dB -19.43 dB 0:28 53-Кухарка, Героцогиня и ПоросёнокDR13 -0.20 dB -16.51 dB 1:23 54-Песня про ребёнка-поросёнка (часть 1)DR14 -0.20 dB -16.55 dB 1:28 55-Чеширский кот. Герцогиня уходит на вечерний крохейDR13 -0.20 dB -16.94 dB 0:23 56-Песня про ребёнка-поросёнка (часть 2)DR13 -0.20 dB -16.19 dB 0:39 57-Чеширский кот улыбаетсяDR14 -0.59 dB -18.63 dB 0:41 58-Песня о планах (часть 4)DR14 -0.20 dB -17.42 dB 1:53 59-Чеширский кот исчезает и появляетсяDR15 -0.36 dB -19.34 dB 0:51 60-Песня Чеширского котаDR13 -0.20 dB -17.37 dB 0:26 61-Алиса идёт дальше с Улыбкой. Дом Мартовского зайцаDR15 -0.20 dB -19.80 dB 0:37 62-Песня Мартовского зайцаDR15 -5.61 dB -22.62 dB 0:11 63-Алиса идёт к Оболванившемуся шляпникуDR14 -3.88 dB -22.07 dB 0:55 64-Песня шляпникаDR14 -8.29 dB -26.38 dB 0:28 65-Ореховая соня. Песня Ореховой сониDR14 -2.38 dB -21.12 dB 3:16 66-Беседа Алисы со шляпником, зайцем и сонейDR14 -4.80 dB -22.72 dB 2:19 67-Песня об обиженном времениDR14 -2.58 dB -20.70 dB 2:19 68-Беседа продолжается. Алиса уходитDR14 -2.86 dB -20.64 dB 1:03 69-Песня Кэрролла (часть 4)DR14 -1.84 dB -20.18 dB 1:19 70-Алиса и Улыбка в саду. Крашеные розы. Шествие КоролевыDR15 -2.31 dB -20.53 dB 0:37 71-Королевское шествие (часть 1)DR14 -3.20 dB -19.93 dB 1:08 72-Королева и её свитаDR14 -1.97 dB -19.74 dB 0:37 73-Королевское шествие (часть 2)DR13 -2.89 dB -20.31 dB 1:05 74-Королевский вечерний крохейDR13 -2.40 dB -18.58 dB 0:33 75-Песня про крохей (часть 1)DR15 -2.87 dB -21.67 dB 1:04 76-Чеширский кот и КорольDR15 -2.60 dB -18.04 dB 0:09 77-Песня про крохей (часть 2)DR14 -2.76 dB -21.26 dB 1:27 78-Продолжение игрыDR15 -2.67 dB -21.72 dB 3:05 79-СудDR14 -5.10 dB -27.46 dB 0:37 80-Сказка подходит к концуDR14 -5.37 dB -22.13 dB 1:06 81-Песня Кэрролла (часть 5)--------------------------------------------------------------------------------
Number of tracks: 77Official DR value: DR14
Samplerate: 44100 HzChannels: 2Bits per sample: 16Bitrate: 789 kbpsCodec: WavPack================================================================================
--------------------------------------------------------------------------------Analyzed: Кэрролл, Додо, Чеширский кот, Улыбка, Синяя гусеница – Всеволод Абдулов; Алиса – Галина Иванова (поёт Клара Румянова); Белый кролик – Всеволод Шиловский; Мышь, Ореховая соня, Поросёнок – Клара Румянова; Попугай, Орлёнок Эд – Владимир Высоцкий; Билль, Шляпник – Михаил Лобанов; Джим, Мартовский заяц, Валет, Палач, Лягушонок – Виктор Петров (песню Лягушонка поёт Владимир Голышев); Герцогиня – Евгения Ханаева; Королева, Кухарка – Наталья Вихрова; Король, Судья, Садовник – Олег Герасимов; Атака Гризли, Дама-антипод – Наталья Назарова. В эпизодах - артисты МХАТ. Инструментальный ансамбль п/у Мартина Нерсесяна. Соло на скрипке: Григорий Кемлин. Инсценировка: Олег Герасимов. Слова и мелодии песен: Владимир Высоцкий. Музыка: Евгений Геворгяни / Алиса в стране чудес (Симаз, AR 006-2, Double CD)--------------------------------------------------------------------------------
DR Peak RMS Duration Track--------------------------------------------------------------------------------DR15 -0.20 dB -19.24 dB 4:10 15-Окончание полёта. Алиса в Очень странном месте. Пузырёк «выпей меня»DR13 -0.54 dB -17.76 dB 0:39 16-Про Мэри Энн (часть 1)DR13 -0.20 dB -16.93 dB 0:46 18-Песня Алисы про цифры (часть 1)DR14 -0.20 dB -18.33 dB 3:00 35-Алиса в домике Белого кролика. Говорящий пузырёк, Белый кролик, Билль и Джим--------------------------------------------------------------------------------
Number of tracks: 4Official DR value: DR14
Samplerate: 44100 HzChannels: 2Bits per sample: 16Bitrate: 814 kbpsCodec: WavPack================================================================================

auCDtect

-----------------------
DON'T MODIFY THIS FILE
-----------------------
PERFORMER: auCDtect Task Manager, ver. 1.6.0 RC1 build 1.6.0.1Copyright (c) 2008-2010 y-soft. All rights reservedhttp://y-soft.org
ANALYZER: auCDtect: CD records authenticity detector, version 0.8.2Copyright (c) 2004 Oleg Berngardt. All rights reserved.Copyright (c) 2004 Alexander Djourik. All rights reserved.
FILE: Алиса в стране чудес (AR 006-2) (CD2).wv Size: 246876114 Hash: 6DD1F3FBB278F115DEA0B7DE108F55D2 Accuracy: -m0 Conclusion: CDDA 100% Signature: 8582FC92F76C83E594DCF176C08682273B44A09DFILE: Алиса в стране чудес (AR 006-2) (CD1).wv Size: 300387006 Hash: 9AF8C04FD88A81B6ACE744B69C38F003 Accuracy: -m0 Conclusion: CDDA 100% Signature: E1153A427272B6141427CE2AFB08DE4254FAAF48FILE: Алиса в стране чудес (AR 006-2) (CD2).wav Size: 441588044 Hash: 6DD1F3FBB278F115DEA0B7DE108F55D2 Accuracy: -m0 Conclusion: CDDA 100% Signature: 944DF358CA811028347C97A10782E2171E362B1AFILE: Алиса в стране чудес (AR 006-2) (CD1).wav Size: 520467068 Hash: 9AF8C04FD88A81B6ACE744B69C38F003 Accuracy: -m0 Conclusion: CDDA 100% Signature: FA98326A00107622AC9B593BA6F684F640E46E70

Издатель, номер по каталогу: Мелодия, MEL CD 50 00794, Double CD, Digipak
Производитель диска: Россия
Год выпуска CD: 2008
Время звучания: 1:30:57

EAC log CD1

Exact Audio Copy V1.0 beta 3 from 29. August 2011
Отчёт EAC об извлечении, выполненном 27. декабря 2015, 20:30
Различные исполнители / Алиса в стране чудес (MEL CD 50 00794) (CD1)
Дисковод: ASUS DRW-1814BL Adapter: 0 ID: 0
Режим чтения : ДостоверностьИспользование точного потока : ДаОтключение кэша аудио : ДаИспользование указателей C2 : Нет
Коррекция смещения при чтении : 6Способность читать области Lead-in и Lead-out : НетЗаполнение пропущенных сэмплов тишиной : ДаУдаление блоков с тишиной в начале и конце : НетПри вычислениях CRC использовались нулевые сэмплы : ДаИнтерфейс : Встроенный Win32-интерфейс для Win NT/2000
Выходной формат : Внутренние WAV-операцииФормат сэмплов : 44.100 Гц; 16 бит; стерео
TOC извлечённого CD
Трек | Старт | Длительность | Начальный сектор | Конечный сектор --------------------------------------------------------------------- 1 | 0:00.00 | 4:13.41 | 0 | 19015 2 | 4:13.41 | 4:27.64 | 19016 | 39104 3 | 8:41.30 | 2:08.71 | 39105 | 48775 4 | 10:50.26 | 3:05.32 | 48776 | 62682 5 | 13:55.58 | 1:35.48 | 62683 | 69855 6 | 15:31.31 | 0:44.33 | 69856 | 73188 7 | 16:15.64 | 4:10.50 | 73189 | 91988 8 | 20:26.39 | 0:40.04 | 91989 | 94992 9 | 21:06.43 | 2:03.31 | 94993 | 104248 10 | 23:09.74 | 1:40.34 | 104249 | 111782 11 | 24:50.33 | 1:59.35 | 111783 | 120742 12 | 26:49.68 | 3:37.59 | 120743 | 137076 13 | 30:27.52 | 2:42.08 | 137077 | 149234 14 | 33:09.60 | 1:17.56 | 149235 | 155065 15 | 34:27.41 | 0:36.14 | 155066 | 157779 16 | 35:03.55 | 4:05.70 | 157780 | 176224 17 | 39:09.50 | 0:41.47 | 176225 | 179346 18 | 39:51.22 | 2:57.31 | 179347 | 192652 19 | 42:48.53 | 6:21.38 | 192653 | 221265
Характеристики диапазона извлечения и сообщения об ошибках
Выбранный диапазон
Имя файла G:\ley-barmaley\музыкальные сказки на сайте lossless-galaxy.ru\Алиса в стране чудес (MEL CD 50 00794) (CD1).wav
Пиковый уровень 98.8 % Скорость извлечения 4.3 X Качество диапазона 100.0 % CRC теста 5B076BAD CRC копии 5B076BAD Копирование... OK
Ошибок не произошло
AccurateRip: сводка
Трек 1 : извлечено точно (доверие 3) [CAD02C54] (AR v2)Трек 2 : извлечено точно (доверие 3) [9B25351B] (AR v2)Трек 3 : извлечено точно (доверие 3) [2B35B342] (AR v2)Трек 4 : извлечено точно (доверие 3) [6D6FDC47] (AR v2)Трек 5 : извлечено точно (доверие 3) [B95A2F55] (AR v2)Трек 6 : извлечено точно (доверие 3) [B70CF251] (AR v2)Трек 7 : извлечено точно (доверие 3) [237A1C7E] (AR v2)Трек 8 : извлечено точно (доверие 3) [2ED13D8C] (AR v2)Трек 9 : извлечено точно (доверие 3) [59AA5BEB] (AR v2)Трек 10 : извлечено точно (доверие 3) [E7A0A080] (AR v2)Трек 11 : извлечено точно (доверие 3) [1E40D7CF] (AR v2)Трек 12 : извлечено точно (доверие 3) [31E160ED] (AR v2)Трек 13 : извлечено точно (доверие 3) [699E84E1] (AR v2)Трек 14 : извлечено точно (доверие 3) [A6C55627] (AR v2)Трек 15 : извлечено точно (доверие 3) [8D8B962B] (AR v2)Трек 16 : извлечено точно (доверие 3) [7FEDE82D] (AR v2)Трек 17 : извлечено точно (доверие 3) [0500D456] (AR v2)Трек 18 : извлечено точно (доверие 3) [DFA20703] (AR v2)Трек 19 : извлечено точно (доверие 2) [052723D8] (AR v2)
Все треки извлечены точно
Конец отчёта
---- CUETools DB Plugin V2.1.3
[CTDB TOCID: 0bQcFB59Tczgz.Vyg3iFL5EilOc-] found, Submit result: 0bQcFB59Tczgz.Vyg3iFL5EilOc- has been confirmed[0c4b29a2] (6/7) Accurately ripped[effb2a98] (1/7) Differs in 3379 samples @00:37:31,14:56:66-14:56:67,14:59:19,14:59:44-14:59:45,15:00:07-15:00:08,15:00:58-15:00:59,15:00:70-15:00:71,15:01:08-15:01:09,15:01:21-15:01:22,15:01:33-15:01:34,15:01:46-15:01:47,15:01:59-15:01:60,15:01:71-15:01:72,15:02:09-15:02:10,15:02:22-15:02:23,15:02:35,15:02:47-15:02:48,15:02:60-15:02:61,15:02:73,15:03:10-15:03:11,15:03:23-15:03:24,15:03:36,15:03:49,15:03:61-15:03:62,15:03:74,15:04:11-15:04:12,15:04:24-15:04:25,15:04:37-15:04:38,15:04:50,15:04:62-15:04:63,15:05:00,15:05:13,15:05:25-15:05:26,15:05:38,15:05:51,15:05:63-15:05:64,15:06:01-15:06:02,15:06:14-15:06:15,15:06:27,15:06:40,15:06:52,15:07:02,15:07:15-15:07:16,15:07:28,15:07:40,15:07:53,15:07:66,15:08:04,15:08:16,15:08:29,15:08:42,15:08:54-15:08:55,15:08:67,15:09:04-15:09:06,15:09:17,15:09:30-15:09:31,15:09:43,15:09:56,15:09:69,15:10:06,15:10:18-15:10:19,15:10:32,15:10:44-15:10:45,15:10:57,15:10:69-15:10:70,15:11:07-15:11:08,15:11:20,15:11:32-15:11:33,15:11:45-15:11:46,15:11:58-15:11:59,15:11:71,15:12:08-15:12:09,15:12:21-15:12:22,15:12:34,15:12:46-15:12:47,15:12:59-15:12:60,15:12:72-15:12:73,15:13:09-15:13:10,15:13:22-15:13:23,15:13:35,15:13:48,15:13:60-15:13:62,15:13:73-15:13:74,15:14:11-15:14:12,15:14:24,15:14:36-15:14:37,15:14:49-15:14:50,15:14:62-15:14:63,15:15:00,15:15:12-15:15:13,15:15:25,15:15:38,15:15:50-15:15:51,15:15:64,15:16:01-15:16:02,15:16:14,15:16:26,15:16:39-15:16:40,15:16:52,15:16:65,15:17:02-15:17:03,15:17:15-15:17:16,15:17:40-15:17:41,15:17:53-15:17:54,15:20:32-15:20:33,15:21:08,15:23:11You can use CUETools to repair this rip.
==== Контрольная сумма отчёта B52DE24CF2787E29323A017E5C8B72CACD2A9B08020E76041E5A57BEA6837C13 ====

EAC log CD2

Exact Audio Copy V1.0 beta 3 from 29. August 2011
Отчёт EAC об извлечении, выполненном 27. декабря 2015, 21:40
Различные исполнители / Алиса в стране чудес (MEL CD 50 00794) (CD2)
Дисковод: ASUS DRW-1814BL Adapter: 0 ID: 0
Режим чтения : ДостоверностьИспользование точного потока : ДаОтключение кэша аудио : ДаИспользование указателей C2 : Нет
Коррекция смещения при чтении : 6Способность читать области Lead-in и Lead-out : НетЗаполнение пропущенных сэмплов тишиной : ДаУдаление блоков с тишиной в начале и конце : НетПри вычислениях CRC использовались нулевые сэмплы : ДаИнтерфейс : Встроенный Win32-интерфейс для Win NT/2000
Выходной формат : Внутренние WAV-операцииФормат сэмплов : 44.100 Гц; 16 бит; стерео
TOC извлечённого CD
Трек | Старт | Длительность | Начальный сектор | Конечный сектор --------------------------------------------------------------------- 1 | 0:00.00 | 2:37.56 | 0 | 11830 2 | 2:37.56 | 4:59.07 | 11831 | 34262 3 | 7:36.63 | 2:01.09 | 34263 | 43346 4 | 9:37.72 | 5:02.08 | 43347 | 66004 5 | 14:40.05 | 1:53.70 | 66005 | 74549 6 | 16:34.00 | 1:18.18 | 74550 | 80417 7 | 17:52.18 | 0:47.37 | 80418 | 83979 8 | 18:39.55 | 0:59.07 | 83980 | 88411 9 | 19:38.62 | 0:23.08 | 88412 | 90144 10 | 20:01.70 | 3:15.71 | 90145 | 104840 11 | 23:17.66 | 2:18.32 | 104841 | 115222 12 | 25:36.23 | 2:19.06 | 115223 | 125653 13 | 27:55.29 | 1:02.67 | 125654 | 130370 14 | 28:58.21 | 1:19.02 | 130371 | 136297 15 | 30:17.23 | 6:41.23 | 136298 | 166395 16 | 36:58.46 | 3:04.51 | 166396 | 180246 17 | 40:03.22 | 1:43.02 | 180247 | 187973
Характеристики диапазона извлечения и сообщения об ошибках
Выбранный диапазон
Имя файла G:\ley-barmaley\музыкальные сказки на сайте lossless-galaxy.ru\Алиса в стране чудес (MEL CD 50 00794) (CD2).wav
Пиковый уровень 98.7 % Скорость извлечения 7.6 X Качество диапазона 100.0 % CRC теста 0C68DC1B CRC копии 0C68DC1B Копирование... OK
Ошибок не произошло
AccurateRip: сводка
Трек 1 : извлечено точно (доверие 3) [BC08C56C] (AR v2)Трек 2 : извлечено точно (доверие 3) [6D3EC6E4] (AR v2)Трек 3 : извлечено точно (доверие 3) [2F7D9DC9] (AR v2)Трек 4 : извлечено точно (доверие 3) [BE40FCEF] (AR v2)Трек 5 : извлечено точно (доверие 3) [12E2B61A] (AR v2)Трек 6 : извлечено точно (доверие 3) [4A946DDB] (AR v2)Трек 7 : извлечено точно (доверие 3) [E1703B40] (AR v2)Трек 8 : извлечено точно (доверие 3) [DEF1526E] (AR v2)Трек 9 : извлечено точно (доверие 3) [2143AA43] (AR v2)Трек 10 : извлечено точно (доверие 3) [A44CFA1A] (AR v2)Трек 11 : извлечено точно (доверие 3) [9ADF74BC] (AR v2)Трек 12 : извлечено точно (доверие 3) [98170DE1] (AR v2)Трек 13 : извлечено точно (доверие 3) [D523B860] (AR v2)Трек 14 : извлечено точно (доверие 3) [D0501AD6] (AR v2)Трек 15 : извлечено точно (доверие 3) [27FC4615] (AR v2)Трек 16 : извлечено точно (доверие 3) [018C7561] (AR v2)Трек 17 : извлечено точно (доверие 3) [2F63C156] (AR v2)
Все треки извлечены точно
Конец отчёта
---- CUETools DB Plugin V2.1.3
[CTDB TOCID: jnALU2IP2yt3ltFxMD7XJkFrg60-] found, Submit result: jnALU2IP2yt3ltFxMD7XJkFrg60- has been confirmed[2eeb34b9] (1/8) No match[8c110964] (7/8) Accurately ripped
==== Контрольная сумма отчёта 7016FCDC16C898BDD71FAE09E6E8191528EBC39B18B4CD0B29B34B9F0BF945BC ====

Dynamic Range Meter



foobar2000 1.3.8 / Dynamic Range Meter 1.1.1log date: 2017-04-18 09:41:01
--------------------------------------------------------------------------------Analyzed: Кэрролл, Додо, Чеширский кот, Улыбка, Синяя гусеница – Всеволод Абдулов; Алиса – Галина Иванова (поёт Клара Румянова); Белый кролик – Всеволод Шиловский; Мышь, Ореховая соня, Поросёнок – Клара Румянова; Попугай, Орлёнок Эд – Владимир Высоцкий; Билль, Шляпник – Михаил Лобанов; Джим, Мартовский заяц, Валет, Палач, Лягушонок – Виктор Петров (песню Лягушонка поёт Владимир Голышев); Герцогиня – Евгения Ханаева; Королева, Кухарка – Наталья Вихрова; Король, Судья, Садовник – Олег Герасимов; Атака Гризли, Дама-антипод – Наталья Назарова. В эпизодах - артисты МХАТ. Инструментальный ансамбль п/у Мартина Нерсесяна. Соло на скрипке: Григорий Кемлин. Инсценировка: Олег Герасимов. Слова и мелодии песен: Владимир Высоцкий. Музыка: Евгений Геворгян / Алиса в стране чудес (Мелодия, MEL CD 50 00794, Double CD)--------------------------------------------------------------------------------
DR Peak RMS Duration Track--------------------------------------------------------------------------------DR14 -2.23 dB -19.85 dB 4:14 01-Рассказ и песня Додо о сказочной стране и Льюисе КэрроллеDR13 -0.60 dB -18.27 dB 4:28 02-Песня Алисы «Я страшно скучаю», появление Белого КроликаDR16 -0.44 dB -19.54 dB 2:09 03-Знакомство с Белым Кроликом и его песняDR13 -0.72 dB -17.77 dB 3:05 04-Падение Алисы в волшебный колодецDR13 -0.23 dB -17.92 dB 1:36 05-Песня антиподовDR11 -4.03 dB -18.89 dB 0:44 06-Песня Алисы «Догонит ли в воздухе»DR14 -0.28 dB -19.15 dB 4:11 07-Алиса в очень странном местеDR13 -0.67 dB -18.02 dB 0:40 08-Песня Алисы «Толстушка Мэри Энн»DR15 -2.26 dB -21.28 dB 2:03 09-Все чудесатее и чудесатееDR13 -0.97 dB -18.15 dB 1:40 10-Песня Алисы «Все должны до одного»DR13 -1.85 dB -19.03 dB 1:59 11-Продолжение изменений и превращенийDR13 -0.56 dB -18.01 dB 3:38 12-Песня Мыши и светская беседа с АлисойDR12 -0.37 dB -15.09 dB 2:42 13-Песня ПопугаяDR14 -1.26 dB -19.69 dB 1:18 14-Знакомство с придуманными героямиDR12 -0.41 dB -17.06 dB 0:36 15-Песня Орлёнка ЭдаDR14 -0.47 dB -19.41 dB 4:06 16-Самая сухая лекция и странные скачкиDR12 -0.93 dB -17.61 dB 0:42 17-Песня Алисы «Хорошо смотреть вперёд»DR13 -0.38 dB -17.96 dB 2:57 18-Алиса в доме Белого КроликаDR14 -0.10 dB -17.05 dB 6:22 19-Джимми и Билль в парнике у дома Белого Кролика, их песня, и дальнейшие превращения АлисыDR14 -1.03 dB -19.44 dB 2:38 20-Песня Алисы «Чтобы не попасть в капкан» и её размышленияDR13 -0.26 dB -17.06 dB 4:59 21-Разговор с Синей гусеницей о превращенияхDR14 -0.56 dB -18.00 dB 2:01 22-Песня ЛягушонкаDR14 -0.47 dB -17.29 dB 5:02 23-Происшествия на кухнеDR14 -0.70 dB -17.92 dB 1:54 24-Диалог с Улыбкой Чеширского котаDR15 -0.35 dB -18.84 dB 1:18 25-Песня Чеширского котаDR15 -1.31 dB -20.28 dB 0:47 26-Песня Мартовского зайцаDR13 -5.96 dB -21.00 dB 0:59 27-Песня ШляпникаDR12 -10.10 dB -25.63 dB 0:23 28-Песня Ореховой сониDR14 -0.85 dB -18.91 dB 3:16 29-Разговор за чайным столомDR14 -2.91 dB -20.65 dB 2:18 30-Песня о времениDR13 -0.67 dB -17.90 dB 2:19 31-Продолжение разговора за чайным столомDR14 -1.84 dB -19.28 dB 1:03 32-Песня о добре и зле в странной странеDR12 -0.79 dB -16.59 dB 1:19 33-Алиса попадает в садикDR13 -0.11 dB -16.83 dB 6:41 34-Королевское шествие и королевский крохейDR15 -0.11 dB -18.76 dB 3:05 35-Королевский судDR13 -4.54 dB -21.33 dB 1:43 36-Возвращение Алисы домой и заключительная песня Додо--------------------------------------------------------------------------------
Number of tracks: 36Official DR value: DR14
Samplerate: 44100 HzChannels: 2Bits per sample: 16Bitrate: 817 kbpsCodec: WavPack================================================================================

auCDtect

-----------------------
DON'T MODIFY THIS FILE
-----------------------
PERFORMER: auCDtect Task Manager, ver. 1.6.0 RC1 build 1.6.0.1Copyright (c) 2008-2010 y-soft. All rights reservedhttp://y-soft.org
ANALYZER: auCDtect: CD records authenticity detector, version 0.8.2Copyright (c) 2004 Oleg Berngardt. All rights reserved.Copyright (c) 2004 Alexander Djourik. All rights reserved.
FILE: Алиса в стране чудес (MEL CD 50 00794) (CD2).wv Size: 256006322 Hash: E67450C2D5AFBDA7D2B063F8129EA472 Accuracy: -m0 Conclusion: CDDA 100% Signature: ECCCA18DD7741A6950736A5866D5E6D2C9A218E0FILE: Алиса в стране чудес (MEL CD 50 00794) (CD1).wv Size: 301929070 Hash: FE30126DD98A93808D1A9CBF4E4D5389 Accuracy: -m0 Conclusion: CDDA 100% Signature: D1783C77A69022C1005166F2AF3A49D495DF63E7FILE: Алиса в стране чудес (MEL CD 50 00794) (CD2).wav Size: 442114892 Hash: E67450C2D5AFBDA7D2B063F8129EA472 Accuracy: -m0 Conclusion: CDDA 100% Signature: A424428C70486154A87E2D8A3EB185D4B93245D0FILE: Алиса в стране чудес (MEL CD 50 00794) (CD1).wav Size: 520417676 Hash: FE30126DD98A93808D1A9CBF4E4D5389 Accuracy: -m0 Conclusion: CDDA 100% Signature: 2C1EB86976BC582879A1155052B9A44C9CB02086
«Приключения Алисы в стране чудес» - эта сказочная повесть появилась в Англии больше ста лет тому назад. Написал её преподаватель Оксфордского университета. По образованию математик, по имени Чарльз Лутвидж Доджсон, но для сказки придумал он себе особое имя, которое прославилось вместе с Алисой на весь свет, - Льюис Кэрролл (1832 - 1898).
Где же находится Страна чудес? Во сне. Всё это маленькой Алисе приснилось. Но вообще говоря, Льюис Кэрролл обнаружил свою удивительную страну в уме. Это сказка об игре ума. Это приключения понятий и представлений, самых привычных, выражаемых обычными словами. «До свидания», - говорим мы, не задумываясь, а Льюис Кэрролл предложил измерить, сколько это получится до ближайшего свидания. А видали вы кошку без улыбки? Ещё бы! В таком случае попробуйте представить себе одну улыбку, без кошки. Да как же такое возможно? Очень просто! Или вот ещё, например, что общего между злой птицей и горчицей? Тоже не знаете? А ведь это совсем просто. И птица и горчица щиплются. «Какая-то чепуха! Что за бессмыслица!» - так нам с вами может показаться. Нет, говорит Льюис Кэрролл, это - логика, строгая логика, между тем люди привыкли пользоваться словами и понятиями без строгой логической последовательности, вот им при встрече с настоящим здравым смыслом и кажется, будто здравый смысл ошибается, а они - правы.
Страна чудес - край удивительных вопросов и ещё более удивительных ответов. И живут в этом краю удивительные существа. Собственно, населяют они не какую-нибудь страну, а язык, речь нашу каждодневную. «Я тебе покажу, - говорит злой человек, - где раки зимуют!» Или: «Так далеко, куда и Макар телят не гонял». Хорошо, давайте представим себе бедного Макара, именем которого часто грозятся, но как-то не задумываются, а откуда он, этот Макар? Всё-таки интересно увидеть, где это раки зимуют, и послушать, как врёт сивый мерин. Надо только при этом учесть, что у англичан вместо «сивого мерина» - заяц, мартовский заяц, потому что английские зайцы именно в марте теряют рассудок и не могут отвечать за свои поступки и слова. Маленькая Алиса, как и все английские дети, множество раз слышала и про «мартовского зайца» и про «чеширского кота», но они не представляли себе, как эти странные существа выглядят, пока не рассказал им об этом Льюис Кэрролл.
«Думайте!» - вот что хотел сказать Льюис Кэрролл своими удивительными рассказами, обращаясь к маленьким читателям или, большей частью, слушателям. Но прислушались к нему не только дети. Сама наука, прежде всего математика и логика пошли тем путём, который привёл Алису в страну чудес. Много интересного нашли для себя в повести Льюиса Кэрролла психологи, потому что никто прежде так точно не описывал эту самую игру ума, последовательную и прихотливую работу человеческого сознания. Одна из самых современных, «молодых» наук, кибернетика, управляющая «умными механизмами», считает Льюиса Кэрролла в числе своих основателей.
Некогда Льюис Кэрролл побывал в России. А вскоре, в 1879 году, сказка его появилась на русском языке. Это был не перевод, а пересказ «приключений Алисы», и даже не пересказ, а просто русский вариант той логической игры, которую с английскими детьми начал Льюис Кэрролл. В русской книжке, возможно, по совету самого автора (он давал такие же советы переводчикам немецким и французским), на русский лад переделаны были смешные стихи и все «бессмысленные» задачи. С тех пор наиболее удачные переводы-пересказы «Приключении Алисы» сделаны были по тому же принципу. Ведь это самое главное - заставить, как умел Льюис Кэрролл, задуматься над такими вещами, которые, кажется, размышлений совсем не требуют. Мы всё время так говорим, то и дело так думаем, но обращается к нам Льюис Кэрролл: «Стоп!» - предлагает всего лишь слова поменять местами, и мы попадаем в страну чудес, где привычное становится удивительным.
И вот сказку Льюиса Кэрролла вы сейчас услышите ещё раз в одном варианте. Актёры рассказывают её по сценарию режиссёра Олега Герасимова, хорошо известного своими пластинками «Рикки-Тикки-Тави» и «Барон Мюнхаузен». Сценарий был сделан в соответствии с основными советами Льюиса Кэрролла: «Думайте! Фантазируйте! Следите внимательно за мыслями и словами!» А то ведь как бывает. Маленькая Алиса думала, думала и вдруг оказалась не в своём уме, а - в чужом. Как же так? Куда пропали её собственные мысли и слова? Послушайте ответ, какой даёт эта пластинка. Такие вопросы ставил оксфордский математик Чарльз Лутвидж Доджсон, когда сам рассказывал свои удивительные истории. О приключениях слов и мыслей написал он книгу, которую напечатал под именем Льюиса Кэрролла. И по-своему, но в кэрролианском духе, по ходу занимательной и серьёзной игры, ведут разговор со слушателями участники приключений Алисы, тех, что развёртываются на этой пластинке.
/Д. Урнов, доктор филологических наук/
● ● ●
В звуковом, «пластиночном» варианте такой необычной по стилю сказки, как «Алиса в стране чудес», роль музыки очень велика. Не будь музыки, сказка эта, лишь словесно «разыгранная» актёрами, несомненно, многое утеряла бы в выражении своей сути, утеряла бы тонкую, загадочную поэтичность, составляющую её особое очарование.
Музыкальное решение сказки многопланово. Мы находим здесь и чисто «фоновые» моменты звучания, когда основной текст проходит на музыке, и элементы изобразительные, воссоздающие в музыке тот или иной персонаж или сцену, и, наконец, эпизоды, в которых музыка выходит на первый план, обретает ведущее образно-смысловое значение в контексте всего повествования.
Важно отметить стилевое единство музыки. Она легка, прозрачна, её мелодический рисунок прост и изящен. Слух «угадывает» в музыке и черты фольклорной традиции, и отголоски непритязательных мадригальных напевов более чем трехвековой давности. Но это - не пассивная стилизация, а органичное, образное решение, найденное композитором.
Интересен в колористическом плане камерный состав оркестра, выступающий в этой сказке: флейта, гобой, ударные (колокольчики, треугольник, малый барабан), арфа, клавесин и группа струнных инструментов, в которой следует особо выделить игру замечательного солиста - скрипача Григория Кемлина.
Начинает сказку нежное звучание колокольчика. Музыка, следуя за повествованием, ведёт нас от встречи к встрече, от одних чудес к другим. Музыкальные образы не сталкиваются, не драматизируются - лишь контрастно оттеняют друг друга. Вот Алиса и Кэрролл ведут диалог; вот Кэрролл превращается в Чеширского кота, а потом просто в Улыбку этого кота; вот внезапные превращения Алисы: она то растёт, то уменьшается (и мы слышим, почти «видим» всё это в музыке!); вот шествуют в игрушечном марше король и королева со своей свитой из карт; вот чудаковатый поросёнок; вот Синяя гусеница, тихо уползающая от нас...
Музыка метко живописует все эти сценки, подчеркивает смену состояний каждого персонажа сказки.
Песни (точнее слова и мелодии песен) сочинил известный актёр Московского театра на Таганке Владимир Высоцкий. Их гармонизацию и обработку композитор Е. Геворгян выполнил в духе единого стилистического решения музыки всей постановки.
... Но вот снова звенит колокольчик, музыка тихо истаивает, исчезает - и мы понимаем, что сказка кончилась, что Алиса неожиданно вышла из сказки.
Музыка «Алисы», несмотря на кажущуюся простоту и лёгкость, представляет немалые трудности для исполнителей. Но трудности эти слушателям не видны. В этом заслуга драматических актёров и оркестровых музыкантов (дирижёр М. Нерсесян), представивших нам сказку с подлинной увлечённостью.
Евгений Геворгян (р. 1

Для скачки контента: [Установить программу-клиент] и кликнуть по - Скачать

[asmlocator.ru].t343306.torrent 
Торрент: Зарегистрирован [ 2017-04-18 19:15 ] · F8C97C144A13E2893DE712DA48B3CB655528FE40

Скачать .torrent

Скачать

18 KB

Статус: проверено
Скачан: 0 раз
Размер: 1,11 GB
terms.php
[Профиль] [ЛС]
Показать сообщения:    
Ответить на тему

Текущее время: 12-Дек 17:55

Часовой пояс: UTC ± 0



Вы не можете начинать темы
Вы не можете отвечать на сообщения
Вы не можете редактировать свои сообщения
Вы не можете удалять свои сообщения
Вы не можете голосовать в опросах
Вы не можете прикреплять файлы к сообщениям
Вы можете скачивать файлы