Карелия 3Д / 3D [2017, видовой, любительская съемка, HDrip, 1080p, 60fps] OverUnder / Вертикальная стереопара

Ответить на тему
Статистика раздачи
Размер:  12,96 GB   |    Зарегистрирован:  2 месяца 19 дней   |    Скачан:  0 раз

Полного источника не было: 1 месяц 26 дней

 
   
 
 
Автор Сообщение

star21 ®

Пол: Не указан

Стаж: 1 год 7 месяцев

Сообщений: 299353

Создавать темы 06-Апр-2017 07:21

[Цитировать]

Карелия 3Д / 3D
Год выпуска: 2017
Страна: Россия
Жанр: видовой, любительская съемка
Продолжительность: 5 частей
Перевод: Не требуется
Описание: Видео, отснятое во время летнего путешествия по Карелии в августе 2016 г. На высокую художественную ценность не претендует, просто обычное любительское видео на память и для общего представления о регионе.
Полноразмерный формат максимального качества для воспроизведения с компьютера, медиаплеера, VR очков. Видео снято с частотой кадров 60 Гц. При воспроизведении с компьютера на телевизор по HDMI 1.4 необходимо выставить режим 1280х720, 59.94 Гц.
На встроенном плеере телевизора не воспроизводится!
1. Рускеальские водопады и бывший Рускеальский мраморный карьер, он же, Горный парк "Рускеала". (7 мин)
2. "Ладожские шхеры" Планируемый нац. парк на севере Ладожского озера. (16 мин)
3. Сплав на байдарках по реке Янис (Янисйоки). Короткий рафтинг по р. Шуя. Водопад Кивач на реке Суна (государственный природный заповедник). (12 мин)
4. Музей-заповедник "Кижи". На одноименном острове в Онежском озере. (9 мин)
5. Музей-заповедник "Соловки". Большой Соловецкий остров. Соловецкий монастырь и ботанический сад. (Архангельская область, Белое море) (17 мин)
Качество: HDrip
Контейнер: MKV
Формат 3D: OverUnder / Вертикальная стереопара
Порядок ракурсов: левый ракурс первый
Видео: H.264, AVC, 1920x2160, 16:9, 30 Мбит/с, 59.94 к/с
Аудио: ААС, 2.0, 48 КГц, 160 Кбит/с

MediaInfo

Общее
Уникальный идентификатор : 182426402895519309739103676628607877430 (0x893E0C1530A11588A4E27657177AC136)
Полное имя : ..\Карелия 2016\Рускеала_TBF.mkv
Формат : Matroska
Версия формата : Version 4 / Version 2
Размер файла : 1,44 Гбайт
Продолжительность : 7 м. 0 с.
Общий поток : 29,5 Мбит/сек
Дата кодирования : UTC 2017-02-10 00:43:24
Программа кодирования : mkvmerge v9.7.1 ('Pandemonium') 64bit
Библиотека кодирования : libebml v1.3.4 + libmatroska v1.4.5
Видео
Идентификатор : 1
Формат : AVC
Формат/Информация : Advanced Video Codec
Профиль формата : High@L5.1
MultiView_Count : 2
MultiView_Layout : Top-Bottom (left eye first)
Параметр CABAC формата : Да
Параметр ReFrames формата : 8 кадров
Идентификатор кодека : V_MPEG4/ISO/AVC
Продолжительность : 7 м. 0 с.
Битрейт : 30,0 Мбит/сек
Ширина : 1920 пикселей
Высота : 2160 пикселей
Соотношение сторон : 0,889
Режим частоты кадров : Постоянный
Частота кадров : 59,940 (60000/1001) кадров/сек
Цветовое пространство : YUV
Субдискретизация насыщенности : 4:2:0
Битовая глубина : 8 бит
Тип развёртки : Прогрессивная
Бит/(Пиксели*Кадры) : 0.121
Размер потока : 1,44 Гбайт (99%)
Библиотека кодирования : x264 core 146 r2538bm 121396c
Настройки программы : cabac=1 / ref=8 / deblock=1:-1:-1 / analyse=0x3:0x133 / me=umh / subme=9 / psy=1 / psy_rd=1.00:0.15 / mixed_ref=1 / me_range=16 / chroma_me=1 / trellis=2 / 8x8dct=1 / cqm=0 / deadzone=21,11 / fast_pskip=1 / chroma_qp_offset=-3 / threads=12 / lookahead_threads=1 / sliced_threads=0 / nr=0 / decimate=1 / interlaced=0 / bluray_compat=0 / constrained_intra=0 / bframes=3 / b_pyramid=2 / b_adapt=2 / b_bias=0 / direct=3 / weightb=1 / open_gop=0 / weightp=2 / keyint=250 / keyint_min=25 / scenecut=40 / intra_refresh=0 / rc_lookahead=60 / rc=abr / mbtree=1 / bitrate=30000 / ratetol=1.0 / qcomp=0.60 / qpmin=0 / qpmax=69 / qpstep=4 / ip_ratio=1.40 / aq=1:1.00
Default : Да
Forced : Нет
Аудио
Идентификатор : 2
Формат : AAC
Формат/Информация : Advanced Audio Codec
Профиль формата : LC
Идентификатор кодека : A_AAC
Продолжительность : 6 м. 59 с.
Битрейт : 160 Кбит/сек
Каналы : 2 канала
Расположение каналов : Front: L R
Частота : 48,0 КГц
Частота кадров : 46,875 кадров/сек (1024 spf)
Метод сжатия : С потерями
Размер потока : 7,99 Мбайт (1%)
Язык : Russian
Default : Да
Forced : Нет

Скриншоты

Если ваш рейтинг упадет ниже 0,3, вы не сможете скачивать торренты! Подробнее о рейтинге.

[asmlocator.ru].t342088.torrent 
Торрент: Зарегистрирован [ 2017-04-06 07:20 ] · C7877481F05067BA326067717A2507ACE76E7DD3

Скачать .torrent

Скачать

33 KB

Статус: проверено
Скачан: 0 раз
Размер: 12,96 GB
terms.php
[Профиль] [ЛС]
Показать сообщения:    
Ответить на тему

Текущее время: 25-Июн 17:30

Часовой пояс: UTC ± 0



Вы не можете начинать темы
Вы не можете отвечать на сообщения
Вы не можете редактировать свои сообщения
Вы не можете удалять свои сообщения
Вы не можете голосовать в опросах
Вы не можете прикреплять файлы к сообщениям
Вы можете скачивать файлы