Тайны замков самураев [2016, Документальный, история, архитектура, SATRip]

Reply to topic
DL-List and Torrent activity
Size:  743 MB   |    Registered:  2 years 4 months   |    Completed:  1 time

Seeder not seen: 42 minutes

 
   
 
 
Author Message

star21 ®

Gender: Female

Longevity: 3 years 9 months

Posts: 551989

Location: Екатеринбург

Post 04-Apr-2017 19:31

[Quote]

Тайны замков самураев
Дата/Год выпуска: 2016
Страна: Япония
Жанр: Документальный, история, архитектура
Продолжительность: 00:51:56
Перевод: Профессиональный (двухголосый закадровый)
Телеканал: История
Описание: Изящные замки древней Японии. Это неувядающая красота архитектуры и символ кровавых феодальных войн. Что за секреты скрывают эти стены?
Доп. информация: Авторство релиза - alf62

качество: SATRip
формат: AVI
Видео: 720x400 (1.80:1), 25 fps, XviD build 73 ~1799 kbps avg, 0.25 bit/pixel
Аудио: 48 kHz, AC3 Dolby Digital, 2/0 (L,R) ch, ~192.00 kbps avg

MediaInfo

Тайны.замков.самураев.2016.XviD.SATRip.alf62.aviФормат                                   : AVIФормат/Информация                        : Audio Video InterleaveРазмер файла                             : 743 МбайтПродолжительность                        : 51 м.Общий поток                              : 2002 Кбит/секПрограмма кодирования                    : VirtualDubMod 1.5.10.3 | www.virtualdub-fr.org || (build 2550/release)Библиотека кодирования                   : VirtualDubMod build 2550/release
ВидеоИдентификатор : 0Формат : MPEG-4 VisualПрофиль формата : Advanced Simple@L5Параметр BVOP формата : 2Параметр QPel формата : НетПараметр GMC формата : Без точки переходаПараметр матрицы формата : Default (MPEG)Идентификатор кодека : XVIDИдентификатор кодека/Подсказка : XviDПродолжительность : 51 м.Битрейт : 1800 Кбит/секШирина : 720 пикселейВысота : 400 пикселейСоотношение сторон : 16:9Частота кадров : 25,000 кадров/секЦветовое пространство : YUVСубдискретизация насыщенности : 4:2:0Битовая глубина : 8 битТип развёртки : ПрогрессивнаяМетод сжатия : С потерямиБит/(Пиксели*Кадры) : 0.250Размер потока : 669 Мбайт (90%)Библиотека кодирования : XviD 73
АудиоИдентификатор : 1Формат : AC-3Формат/Информация : Audio Coding 3Расширение режима : CM (complete main)Параметр Endianness формата : BigИдентификатор кодека : 2000Продолжительность : 51 м.Вид битрейта : ПостоянныйБитрейт : 192 Кбит/секКаналы : 2 каналаРасположение каналов : Front: L RЧастота : 48,0 КГцБитовая глубина : 16 битМетод сжатия : С потерямиРазмер потока : 71,3 Мбайт (10%)Выравнивание : Разделение по промежуткамПродолжительность промежутка : 40 мс. (1,00 видеокадр)Время предзагрузки промежутка : 500 мс.

To download the content you need:
1. Download and install torrent client [for Windows] or for mobile system
2. Click on [Download]
Attention.
If the test YOU are NOT a ROBOT - does not work, then You are using an outdated browser.
Install the current browser and click on [Download]
Security: torrent client is allowed by Kaspersky.

[asmlocator.ru].t340813.torrent 
Torrent: Registered [ 2017-04-04 19:30 ] · F850DFE382227A8411D8525DC448815D1ED8471E

Download .torrent

Download

15 KB

Status: checked
Completed: 1 times
Size: 743 MB
terms.php
[Profile] [PM]
Display posts:    
Reply to topic

Current time is: 22-Aug 08:22

All times are UTC ± 0



You cannot post new topics in this forum
You cannot reply to topics in this forum
You cannot edit your posts in this forum
You cannot delete your posts in this forum
You cannot vote in polls in this forum
You cannot attach files in this forum
You can download files in this forum