Старочеркасский историко-архитектурный музей-заповедник / Путешествие в Старочеркасский заповедник (Дон-ТР) [2013, Док. История. Архитектура, TVRip]

Reply to topic
DL-List and Torrent activity
Size:  199 MB   |    Registered:  2 years 4 months   |    Completed:  0 times

Seeder not seen: Never

 
   
 
 
Author Message

star21 ®

Gender: Female

Longevity: 3 years 9 months

Posts: 551989

Location: Екатеринбург

Post 30-Mar-2017 04:55

[Quote]

Старочеркасский историко-архитектурный музей-заповедник / Путешествие в Старочеркасский заповедник
Дата/Год выпуска: 2013
Страна: Россия
Жанр: Док. История. Архитектура
Продолжительность: 00:21:25
Перевод: Не требуется
Русские субтитры: нет
Режиссер: Дон-ТР
Телеканал: Россия-24 - Дон-ТР
Описание: Старочеркасский музей-заповедник базируется на уникальном комплексе памятников XVII - XIX вв. бывшей столицы донских казаков г.Черкасска. Музей включает в себя 23 объекта. Среди них ансамбль войскового Воскресенского собора и колокольни первой трети XVIII в., в 6-ярусном иконостасе которого свыше 150 икон, миниатюр и т.д. Храмовая икона имеет авторскую подпись. Здесь висят цепи Степана Разина. На атаманском подворье находится экспозиция музея. Неподалеку Петропаловская церковь, где был крещен Матвей Платов, дом К.Булавина. На Ратном кладбище у Преображенской церкви покоятся многие именитые донцы. Охранными зонами музея являются Аннинская крепость 1730-х гг. и Монастырское урочище. Вся экспозиция сочетается с живой структурой станицы: жилыми куренями XIX - XX вв., зеленью, Тихим Доном.
Доп. информация: Производство: Провинциальный салон ГТРК "Дон-ТР" по заказу Старочеркасского историко-архитектурный музея-заповедника.
Группа:
Старочеркасский историко-архитектурный музей-заповедник
Качество: TVRip
Формат: AVI
Видео: Video: H264 700x528 25.00fps 1099Kbps
Аудио: Аудио: MPEG Audio Layer 3 48000Hz stereo 192Kbps

MediaInfo

GeneralComplete name                    : F:\Старочеркасский историко-архитектурный музей-заповедник [Дон-ТР] (2013).aviFormat                           : AVIFormat/Info                      : Audio Video InterleaveFile size                        : 199 MiBDuration                         : 21mn 25sOverall bit rate                 : 1 302 KbpsWriting library                  : VirtualDub build 28346/release
VideoID : 0Format : AVCFormat/Info : Advanced Video CodecFormat profile : High@L3.1Format settings, CABAC : YesFormat settings, ReFrames : 8 framesCodec ID : H264Duration : 21mn 25sBit rate : 1 100 KbpsWidth : 700 pixelsHeight : 528 pixelsDisplay aspect ratio : 4:3Frame rate : 25.000 fpsColor space : YUVChroma subsampling : 4:2:0Bit depth : 8 bitsScan type : ProgressiveBits/(Pixel*Frame) : 0.119Stream size : 169 MiB (85%)Writing library : x264 core 130 r2274bm c832fe9Encoding settings : cabac=1 / ref=8 / deblock=1:-1:-1 / analyse=0x3:0x133 / me=umh / subme=9 / psy=1 / psy_rd=1.00:0.15 / mixed_ref=1 /me_range=16 / chroma_me=1 / trellis=2 / 8x8dct=1 / cqm=0 / deadzone=21,11 / fast_pskip=1 / chroma_qp_offset=-3 / threads=6 / lookahead_threads=1 /sliced_threads=0 / nr=0 / decimate=1 / interlaced=0 / bluray_compat=0 / constrained_intra=0 / bframes=3 / b_pyramid=2 / b_adapt=2 / b_bias=0 / direct=3 /weightb=1 / open_gop=0 / weightp=2 / keyint=250 / keyint_min=25 / scenecut=40 / intra_refresh=0 / rc_lookahead=60 / rc=2pass / mbtree=1 / bitrate=1100 /ratetol=1.0 / qcomp=0.60 / qpmin=0 / qpmax=69 / qpstep=4 / cplxblur=20.0 / qblur=0.5 / ip_ratio=1.40 / aq=1:1.00
AudioID : 1Format : MPEG AudioFormat version : Version 1Format profile : Layer 3Mode : Joint stereoCodec ID : 55Codec ID/Hint : MP3Duration : 21mn 25sBit rate mode : ConstantBit rate : 192 KbpsChannel(s) : 2 channelsSampling rate : 48.0 KHzStream size : 29.4 MiB (15%)Alignment : Split accross interleavesInterleave, duration : 40 ms (1.00 video frame)Interleave, preload duration : 500 ms

Скриншоты

ДРУГИЕ ФИЛЬМЫ О РОСТОВЕ-НА-ДОНУ И РОСТОВСКОЙ ОБЛАСТИ: Под спойлером в раздаче

To download the content you need:
1. Download and install torrent client [for Windows] or for mobile system
2. Click on [Download]
Attention.
If the test YOU are NOT a ROBOT - does not work, then You are using an outdated browser.
Install the current browser and click on [Download]
Security: torrent client is allowed by Kaspersky.

[asmlocator.ru].t334923.torrent 
Torrent: Registered [ 2017-03-30 04:55 ] · F02D7E52853A7C3052DB1FA529BC96D793C1D367

Download .torrent

Download

16 KB

Status: checked
Completed: 0 times
Size: 199 MB
terms.php
[Profile] [PM]
Display posts:    
Reply to topic

Current time is: 22-Aug 08:23

All times are UTC ± 0



You cannot post new topics in this forum
You cannot reply to topics in this forum
You cannot edit your posts in this forum
You cannot delete your posts in this forum
You cannot vote in polls in this forum
You cannot attach files in this forum
You can download files in this forum