Пловцы / Fak wai nai gai thoe / The Swimmers (Сопон Сукдаписит / Sopon Sukdapisit) [2014, Таиланд, ужасы, триллер, мистика, драма, BDRemux 1080p] DVO + Original (Thai) + Sub (Eng)

Reply to topic
DL-List and Torrent activity
Size:  18.9 GB   |    Registered:  2 years 4 months   |    Completed:  0 times

Seeder not seen: Never

Leechers:  1  [  127 KB/s  ]   Show peers in full details
 
   
 
 
Author Message

star21 ®

Gender: Female

Longevity: 3 years 9 months

Posts: 551989

Location: Екатеринбург

Post 23-Mar-2017 19:46

[Quote]

Пловцы / Fak wai nai gai thoe

-
-Страна: Таиланд
Студия: GTH
Жанр: ужасы, триллер, мистика, драма
Год выпуска: 2014
Продолжительность: 01:52:15--Перевод: Любительский (двухголосый закадровый) den904 & DeadSno
Cубтитры: английские
Оригинальная аудиодорожка: тайский--Режиссер: Сопон Сукдаписит / Sopon Sukdapisit
В ролях: Чутавут Паттаракампол, Супассара Гао Чаначарт, Танапоб Тор Лератанакайрон--Описание: После того как Айс забеременела от Перта, лучшего друга ее парня, она совершает самоубийство. И пока ее парень ищет человека, из-за которого она покончила с собой, призрак девушки преследует Перта.--[imdb]http://www.imdb.com/title/tt3788392[/imdb] | kinopoisk | Сэмпл--Тип релиза: BDRemux 1080p [Fak wai nai gai thoe 2014 1080p HKG Blu-ray AVC DTS-HD MA 5.1]
Контейнер: MKV
Видео: MPEG-4 AVC / 21797 kbps / 1920x1080 / 24 fps / 16:9 / High Profile 4.1
Аудио 1: Russian AC3 / 5.1 / 48 kHz / 384 kbps / 16 bits |den904 & DeadSno|
Аудио 2: Thai DTS-HD Master Audio / 5.1 / 48 kHz / 1918 kbps / 16-bit (DTS Core: 5.1 / 48 kHz / 1509 kbps / 16 bits) |original|
Формат субтитров: softsub [SRT]

MediaInfo

Общее
Уникальный идентификатор                 : 181656540867740007657912557851802166094 (0x88A9C6F44AB948F69663F93BCBAD634E)
Полное имя                               : G:\HD\Пловцы.2014.Blu-Ray.Remux.(1080p.mkv
Формат                                   : Matroska
Версия формата                           : Version 4 / Version 2
Размер файла                             : 18,9 Гбайт
Продолжительность                        : 1 ч. 52 м.
Режим общего битрейта                    : Переменный
Общий поток                              : 24,1 Мбит/сек
Дата кодирования                         : UTC 2017-01-07 22:32:09
Программа кодирования                    : mkvmerge v9.7.1 ('Pandemonium') 64bit
Библиотека кодирования                   : libebml v1.3.4 + libmatroska v1.4.5
Attachments                              : poster.jpg
Видео
Идентификатор                            : 1
Формат                                   : AVC
Формат/Информация                        : Advanced Video Codec
Профиль формата                          : High@L4.1
Параметр CABAC формата                   : Да
Параметр ReFrames формата                : 4 кадра
Параметр GOP формата                     : M=3, N=24
Идентификатор кодека                     : V_MPEG4/ISO/AVC
Продолжительность                        : 1 ч. 52 м.
Вид битрейта                             : Переменный
Битрейт                                  : 21,8 Мбит/сек
Максимальный битрейт                     : 32,0 Мбит/сек
Ширина                                   : 1920 пикселей
Высота                                   : 1080 пикселей
Соотношение сторон                       : 16:9
Режим частоты кадров                     : Постоянный
Частота кадров                           : 24,000 кадра/сек
Стандарт вещания                         : NTSC
Цветовое пространство                    : YUV
Субдискретизация насыщенности            : 4:2:0
Битовая глубина                          : 8 бит
Тип развёртки                            : Прогрессивная
Бит/(Пиксели*Кадры)                      : 0.438
Размер потока                            : 17,1 Гбайт (90%)
Default                                  : Да
Forced                                   : Нет
Цветовой диапазон                        : Limited
Основные цвета                           : BT.709
Характеристики трансфера                 : BT.709
Коэффициенты матрицы                     : BT.709
Аудио #1
Идентификатор                            : 2
Формат                                   : AC-3
Формат/Информация                        : Audio Coding 3
Расширение режима                        : CM (complete main)
Параметр Endianness формата              : Big
Идентификатор кодека                     : A_AC3
Продолжительность                        : 1 ч. 52 м.
Вид битрейта                             : Постоянный
Битрейт                                  : 384 Кбит/сек
Каналы                                   : 6 каналов
Расположение каналов                     : Front: L C R, Side: L R, LFE
Частота                                  : 48,0 КГц
Частота кадров                           : 31,250 кадров/сек (1536 spf)
Битовая глубина                          : 16 бит
Метод сжатия                             : С потерями
Размер потока                            : 308 Мбайт (2%)
Заголовок                                : den904 & DeadSno
Язык                                     : Russian
Default                                  : Да
Forced                                   : Нет
Аудио #2
Идентификатор                            : 3
Формат                                   : DTS
Формат/Информация                        : Digital Theater Systems
Профиль формата                          : MA / Core
Режим                                    : 16
Параметр Endianness формата              : Big
Идентификатор кодека                     : A_DTS
Продолжительность                        : 1 ч. 52 м.
Вид битрейта                             : Переменный / Постоянный
Битрейт                                  : 1920 Кбит/сек / 1509 Кбит/сек
Каналы                                   : 6 каналов
Расположение каналов                     : Front: L C R, Side: L R, LFE
Частота                                  : 48,0 КГц
Частота кадров                           : 93,750 кадра/сек (512 spf)
Битовая глубина                          : 16 бит
Метод сжатия                             : Без потерь / Lossy
Размер потока                            : 1,50 Гбайт (8%)
Язык                                     : Thai
Default                                  : Нет
Forced                                   : Нет
Текст
Идентификатор                            : 4
Формат                                   : UTF-8
Идентификатор кодека                     : S_TEXT/UTF8
Идентификатор кодека/Информация          : UTF-8 Plain Text
Продолжительность                        : 1 ч. 44 м.
Битрейт                                  : 22 бит/сек
Count of elements                        : 616
Размер потока                            : 17,3 Кбайт (0%)
Язык                                     : English
Default                                  : Нет
Forced                                   : Нет
Меню
00:00:00.000                             : :Chapter 01
00:07:01.916                             : :Chapter 02
00:18:58.541                             : :Chapter 03
00:28:13.833                             : :Chapter 04
00:37:15.291                             : :Chapter 05
00:45:53.333                             : :Chapter 06
00:56:26.833                             : :Chapter 07
01:05:52.625                             : :Chapter 08
01:13:50.708                             : :Chapter 09
01:25:00.833                             : :Chapter 10
01:32:43.041                             : :Chapter 11
01:44:20.250                             : :Chapter 12

Скриншоты



To download the content you need:
1. Download and install torrent client [for Windows] or for mobile system
2. Click on [Download]
Attention.
If the test YOU are NOT a ROBOT - does not work, then You are using an outdated browser.
Install the current browser and click on [Download]
Security: torrent client is allowed by Kaspersky.

[asmlocator.ru].t328714.torrent 
Torrent: Registered [ 2017-03-23 19:45 ] · 5196323F44A2F805A849C8E269F3CFB9E18CFA01

Download .torrent

Download

48 KB

Status: checked
Completed: 0 times
Size: 18.9 GB
terms.php
[Profile] [PM]

JustJuli

Gender: Female

Longevity: 16 days

Posts: 1

Location: Котельники

Post 04-Aug-2019 21:30 (after 2 years 4 months)

[Quote]

Помогите скачать пожалуйста!!!
[Profile] [PM]
Display posts:    
Reply to topic

Current time is: 21-Aug 10:32

All times are UTC ± 0



You cannot post new topics in this forum
You cannot reply to topics in this forum
You cannot edit your posts in this forum
You cannot delete your posts in this forum
You cannot vote in polls in this forum
You cannot attach files in this forum
You can download files in this forum