Тайны невидимого мира в 3Д / Mysteries of the Unseen World 3D (Луи Шварцберг / Louie Schwartzberg) [2013, Документальный, Короткометражка, BDrip-AVC] VO, Half OverUnder / Вертикальная анаморфная стереопара

Reply to topic
DL-List and Torrent activity
Size:  4.23 GB   |    Registered:  2 years 4 months   |    Completed:  0 times

Seeder not seen: 1 year 4 months

 
   
 
 
Author Message

star21 ®

Gender: Female

Longevity: 3 years 8 months

Posts: 552050

Location: Екатеринбург

Post 11-Mar-2017 02:16

[Quote]

-Тайны невидимого мира
Mysteries of the Unseen World
- Год выпуска: 2013
Страна: США (National Geographic, Lockheed Martin, National Science Foundation, FEI)
Жанр: Документальный, Короткометражка
Продолжительность: 00:39:07
Перевод: Любительский одноголосый закадровый (перевод - Ash61)
Режиссер: Луи Шварцберг / Louie Schwartzberg
Рассказчик на английском: Форест Уитакер / Forest Whitaker-Описание: Этот фильм переносит зрителей в места нашей планеты, где они никогда раньше не были, чтобы увидеть вещи, которые находятся за пределами нашего нормального зрения, но буквально прямо перед глазами. "Тайны невидимого мира" показывает явления, которые нельзя увидеть невооруженным глазом, приглашая зрителей в земные миры, которые спрятаны от нас другими масштабами измерения времени и пространства. Зрители увидят события, которые разворачиваются слишком медленно для человеческого восприятия. Они увидят красоту, драму, и даже юмор явлений, которые происходят за одну микросекунду. Они попадут в микроскопический мир, который когда-то предназначался только для ученых, но данный фильм делает его доступным и для нас. Они поймут, что то, что мы видим, на самом деле лишь малая доля существующего на нашей планете. Высокоскоростная и замедленная съемки, электронная микроскопия и нанотехнологии - лишь некоторые из достижений в области науки, которые теперь позволяют нам увидеть совершенно новую вселенную вещей, событий, существ и процессов, о существовании которых мы даже не подозревали. Эти технологии дали нам "сверхвозможности", позволяющие заглянуть в глубины того, что находится перед нами. Визуально ошеломляющий и основанный на передовых исследованиях, этот фильм доставит любознательным зрителям истинное наслаждение, поскольку они увидят всю грандиозность мира, который они не могут видеть, мира, который существует в воздухе, которым они дышат, на их телах, и во всех событиях, которые происходят вокруг них минута за минутой, наносекунда за наносекундой. И с этим пониманием мы заново оценим удивительность и возможности науки.-Премьера (мир): 1 ноября 2013
. .
-Качество: BDRip (by Ash61)
Контейнер: MKV
Формат 3D: Half OverUnder / Вертикальная анаморфная стереопара
Порядок ракурсов: левый ракурс первый-Видео: AVC / 23,976 fps / 1920х1080p / 13.9 Mbps
Аудио:
#1 - Русский / AC3 / 48 KHz / 5.1 ch / 640 Kbps (VO)
#2 - Английский / AC3 / 48 KHz / 5.1 ch / 640 Kbps (Original - BD 3D US)
Субтитры (внешние SRT UTF-8):
#1 - Русские Полные
#2 - English Full
#3 - English SDH

MediaInfo

General
Unique ID : 214513538855760020025003355045625552129 (0xA161CE071A4946D68C7667FB7BFB5D01)
Complete name : E:\MysteriesOfTheUnseenWorld(2013)3D-halfOU(Ash61)VO\MysteriesOfTheUnseenWorld(2013)3D-halfOU(Ash61)VO.mkv
Format : Matroska
Format version : Version 2
File size : 4.23 GiB
Duration : 39mn 7s
Overall bit rate : 15.5 Mbps
Movie name : Тайны невидимого мира / Mysteries of the Unseen World (2013) в 3Д
Encoded date : UTC 2016-05-02 12:10:17
Writing application : mkvmerge v5.8.0 ('No Sleep / Pillow') built on Sep 2 2012 15:37:04
Writing library : libebml v1.2.3 + libmatroska v1.3.0
Video
ID : 1
Format : AVC
Format/Info : Advanced Video Codec
Format profile : High@L4.1
Format settings, CABAC : Yes
Format settings, ReFrames : 4 frames
Codec ID : V_MPEG4/ISO/AVC
Duration : 39mn 7s
Bit rate : 13.9 Mbps
Width : 1 920 pixels
Height : 1 080 pixels
Display aspect ratio : 16:9
Frame rate mode : Constant
Frame rate : 23.976 fps
Color space : YUV
Chroma subsampling : 4:2:0
Bit depth : 8 bits
Scan type : Progressive
Bits/(Pixel*Frame) : 0.279
Stream size : 3.79 GiB (90%)
Title : BDRip by Ash61
Writing library : x264 core 146 r2538 121396c
Encoding settings : cabac=1 / ref=4 / deblock=1:-3:-3 / analyse=0x3:0x113 / me=umh / subme=10 / psy=1 / psy_rd=1.00:0.00 / mixed_ref=1 / me_range=32 / chroma_me=1 / trellis=2 / 8x8dct=1 / cqm=0 / deadzone=21,11 / fast_pskip=1 / chroma_qp_offset=-2 / threads=12 / lookahead_threads=3 / sliced_threads=0 / nr=0 / decimate=1 / interlaced=0 / bluray_compat=0 / constrained_intra=0 / bframes=12 / b_pyramid=2 / b_adapt=2 / b_bias=0 / direct=3 / weightb=1 / open_gop=0 / weightp=2 / keyint=250 / keyint_min=23 / scenecut=40 / intra_refresh=0 / rc_lookahead=60 / rc=crf / mbtree=1 / crf=16.0 / qcomp=0.70 / qpmin=0 / qpmax=69 / qpstep=4 / vbv_maxrate=40000 / vbv_bufsize=30000 / crf_max=0.0 / nal_hrd=none / filler=0 / frame-packing=4 / ip_ratio=1.40 / aq=1:0.70
Language : English
Default : Yes
Forced : No
Audio #1
ID : 2
Format : AC-3
Format/Info : Audio Coding 3
Mode extension : CM (complete main)
Format settings, Endianness : Big
Codec ID : A_AC3
Duration : 39mn 7s
Bit rate mode : Constant
Bit rate : 640 Kbps
Channel(s) : 6 channels
Channel positions : Front: L C R, Side: L R, LFE
Sampling rate : 48.0 KHz
Bit depth : 16 bits
Compression mode : Lossy
Stream size : 179 MiB (4%)
Title : Любительский одноголосый закадровый (перевод любительский - Ash61)
Language : Russian
Default : Yes
Forced : No
Audio #2
ID : 3
Format : AC-3
Format/Info : Audio Coding 3
Mode extension : CM (complete main)
Format settings, Endianness : Big
Codec ID : A_AC3
Duration : 39mn 7s
Bit rate mode : Constant
Bit rate : 640 Kbps
Channel(s) : 6 channels
Channel positions : Front: L C R, Side: L R, LFE
Sampling rate : 48.0 KHz
Bit depth : 16 bits
Compression mode : Lossy
Stream size : 179 MiB (4%)
Title : Original - BD 3D US
Language : English
Default : No
Forced : No
Menu
00:00:00.000 : :1
00:04:17.090 : :2. Invisible Light
00:08:34.514 : :3. Too Slow
00:15:07.907 : :4. Too Fast
00:21:35.294 : :5. Too Small
00:29:46.910 : :6. NanoWorld
00:34:17.597 : :7
00:36:02.160 : :8. Credits

Для оценки 3Д - Анимированные скрины





















To download the content you need:
1. Download and install torrent client [for Windows] or for mobile system
2. Click on [Download]
Attention.
If the test YOU are NOT a ROBOT - does not work, then You are using an outdated browser.
Install the current browser and click on [Download]
Security: torrent client is allowed by Kaspersky.

[asmlocator.ru].t315252.torrent 
Torrent: Registered [ 2017-03-11 02:15 ] · 45339DF151C16CB78E6A7F5AD80707D2D8DB20D0

Download .torrent

Download

22 KB

Status: checked
Completed: 0 times
Size: 4.23 GB
terms.php
[Profile] [PM]
Display posts:    
Reply to topic

Current time is: 17-Jul 05:43

All times are UTC ± 0



You cannot post new topics in this forum
You cannot reply to topics in this forum
You cannot edit your posts in this forum
You cannot delete your posts in this forum
You cannot vote in polls in this forum
You cannot attach files in this forum
You can download files in this forum